  0
SECTION
  2
HEADER
  9
$ACADVER
  1
AC1015
  9
$ACADMAINTVER
 70
    20
  9
$DWGCODEPAGE
  3
ANSI_936
  9
$INSBASE
 10
0.0
 20
0.0
 30
0.0
  9
$EXTMIN
 10
513.2633786022712
 20
4.044471326599641
 30
0.0
  9
$EXTMAX
 10
541.3700577850881
 20
185.5847349904031
 30
0.0
  9
$LIMMIN
 10
0.0
 20
0.0
  9
$LIMMAX
 10
12.0
 20
9.0
  9
$ORTHOMODE
 70
     1
  9
$REGENMODE
 70
     1
  9
$FILLMODE
 70
     1
  9
$QTEXTMODE
 70
     0
  9
$MIRRTEXT
 70
     0
  9
$LTSCALE
 40
1.0
  9
$ATTMODE
 70
     1
  9
$TEXTSIZE
 40
0.2
  9
$TRACEWID
 40
0.05
  9
$TEXTSTYLE
  7
STANDARD
  9
$CLAYER
  8
0
  9
$CELTYPE
  6
ByLayer
  9
$CECOLOR
 62
   256
  9
$CELTSCALE
 40
1.0
  9
$DISPSILH
 70
     0
  9
$DIMSCALE
 40
1.0
  9
$DIMASZ
 40
0.65
  9
$DIMEXO
 40
0.88
  9
$DIMDLI
 40
0.015
  9
$DIMRND
 40
0.0
  9
$DIMDLE
 40
0.0
  9
$DIMEXE
 40
0.32
  9
$DIMTP
 40
0.0
  9
$DIMTM
 40
0.0
  9
$DIMTXT
 40
0.65
  9
$DIMCEN
 40
0.09
  9
$DIMTSZ
 40
0.0
  9
$DIMTOL
 70
     0
  9
$DIMLIM
 70
     0
  9
$DIMTIH
 70
     0
  9
$DIMTOH
 70
     0
  9
$DIMSE1
 70
     0
  9
$DIMSE2
 70
     0
  9
$DIMTAD
 70
     0
  9
$DIMZIN
 70
     8
  9
$DIMBLK
  1

  9
$DIMASO
 70
     1
  9
$DIMSHO
 70
     1
  9
$DIMPOST
  1
"
  9
$DIMAPOST
  1
"
  9
$DIMALT
 70
     0
  9
$DIMALTD
 70
     1
  9
$DIMALTF
 40
0.03937
  9
$DIMLFAC
 40
1.0
  9
$DIMTOFL
 70
     1
  9
$DIMTVP
 40
0.0
  9
$DIMTIX
 70
     0
  9
$DIMSOXD
 70
     0
  9
$DIMSAH
 70
     0
  9
$DIMBLK1
  1

  9
$DIMBLK2
  1

  9
$DIMSTYLE
  2
副本STANDARD
  9
$DIMCLRD
 70
     3
  9
$DIMCLRE
 70
     3
  9
$DIMCLRT
 70
     3
  9
$DIMTFAC
 40
1.0
  9
$DIMGAP
 40
0.2
  9
$DIMJUST
 70
     0
  9
$DIMSD1
 70
     0
  9
$DIMSD2
 70
     0
  9
$DIMTOLJ
 70
     1
  9
$DIMTZIN
 70
     8
  9
$DIMALTZ
 70
     8
  9
$DIMALTTZ
 70
     8
  9
$DIMUPT
 70
     0
  9
$DIMDEC
 70
     3
  9
$DIMTDEC
 70
     3
  9
$DIMALTU
 70
     2
  9
$DIMALTTD
 70
     1
  9
$DIMTXSTY
  7
STANDARD
  9
$DIMAUNIT
 70
     0
  9
$DIMADEC
 70
     0
  9
$DIMALTRND
 40
0.0
  9
$DIMAZIN
 70
     0
  9
$DIMDSEP
 70
    46
  9
$DIMATFIT
 70
     3
  9
$DIMFRAC
 70
     2
  9
$DIMLDRBLK
  1

  9
$DIMLUNIT
 70
     5
  9
$DIMLWD
 70
    13
  9
$DIMLWE
 70
    13
  9
$DIMTMOVE
 70
     2
  9
$LUNITS
 70
     2
  9
$LUPREC
 70
     4
  9
$SKETCHINC
 40
0.1
  9
$FILLETRAD
 40
0.0
  9
$AUNITS
 70
     0
  9
$AUPREC
 70
     0
  9
$MENU
  1
.
  9
$ELEVATION
 40
0.0
  9
$PELEVATION
 40
0.0
  9
$THICKNESS
 40
0.0
  9
$LIMCHECK
 70
     0
  9
$CHAMFERA
 40
0.0
  9
$CHAMFERB
 40
0.0
  9
$CHAMFERC
 40
0.0
  9
$CHAMFERD
 40
0.0
  9
$SKPOLY
 70
     0
  9
$TDCREATE
 40
2455434.724808658
  9
$TDUCREATE
 40
2455434.391475324
  9
$TDUPDATE
 40
2457820.425125729
  9
$TDUUPDATE
 40
2457820.091792396
  9
$TDINDWG
 40
0.1569418981
  9
$TDUSRTIMER
 40
0.1569377315
  9
$USRTIMER
 70
     1
  9
$ANGBASE
 50
0.0
  9
$ANGDIR
 70
     0
  9
$PDMODE
 70
     0
  9
$PDSIZE
 40
0.0
  9
$PLINEWID
 40
0.0
  9
$SPLFRAME
 70
     0
  9
$SPLINETYPE
 70
     6
  9
$SPLINESEGS
 70
     8
  9
$HANDSEED
  5
4D91
  9
$SURFTAB1
 70
     6
  9
$SURFTAB2
 70
     6
  9
$SURFTYPE
 70
     6
  9
$SURFU
 70
     6
  9
$SURFV
 70
     6
  9
$UCSBASE
  2

  9
$UCSNAME
  2

  9
$UCSORG
 10
0.0
 20
0.0
 30
0.0
  9
$UCSXDIR
 10
1.0
 20
0.0
 30
0.0
  9
$UCSYDIR
 10
0.0
 20
1.0
 30
0.0
  9
$UCSORTHOREF
  2

  9
$UCSORTHOVIEW
 70
     0
  9
$UCSORGTOP
 10
0.0
 20
0.0
 30
0.0
  9
$UCSORGBOTTOM
 10
0.0
 20
0.0
 30
0.0
  9
$UCSORGLEFT
 10
0.0
 20
0.0
 30
0.0
  9
$UCSORGRIGHT
 10
0.0
 20
0.0
 30
0.0
  9
$UCSORGFRONT
 10
0.0
 20
0.0
 30
0.0
  9
$UCSORGBACK
 10
0.0
 20
0.0
 30
0.0
  9
$PUCSBASE
  2

  9
$PUCSNAME
  2

  9
$PUCSORG
 10
0.0
 20
0.0
 30
0.0
  9
$PUCSXDIR
 10
1.0
 20
0.0
 30
0.0
  9
$PUCSYDIR
 10
0.0
 20
1.0
 30
0.0
  9
$PUCSORTHOREF
  2

  9
$PUCSORTHOVIEW
 70
     0
  9
$PUCSORGTOP
 10
0.0
 20
0.0
 30
0.0
  9
$PUCSORGBOTTOM
 10
0.0
 20
0.0
 30
0.0
  9
$PUCSORGLEFT
 10
0.0
 20
0.0
 30
0.0
  9
$PUCSORGRIGHT
 10
0.0
 20
0.0
 30
0.0
  9
$PUCSORGFRONT
 10
0.0
 20
0.0
 30
0.0
  9
$PUCSORGBACK
 10
0.0
 20
0.0
 30
0.0
  9
$USERI1
 70
     0
  9
$USERI2
 70
     0
  9
$USERI3
 70
     0
  9
$USERI4
 70
     0
  9
$USERI5
 70
     0
  9
$USERR1
 40
0.0
  9
$USERR2
 40
0.0
  9
$USERR3
 40
0.0
  9
$USERR4
 40
0.0
  9
$USERR5
 40
2.5
  9
$WORLDVIEW
 70
     1
  9
$SHADEDGE
 70
     3
  9
$SHADEDIF
 70
    70
  9
$TILEMODE
 70
     1
  9
$MAXACTVP
 70
    64
  9
$PINSBASE
 10
0.0
 20
0.0
 30
0.0
  9
$PLIMCHECK
 70
     0
  9
$PEXTMIN
 10
1.000000000000000E+20
 20
1.000000000000000E+20
 30
1.000000000000000E+20
  9
$PEXTMAX
 10
-1.000000000000000E+20
 20
-1.000000000000000E+20
 30
-1.000000000000000E+20
  9
$PLIMMIN
 10
0.0
 20
0.0
  9
$PLIMMAX
 10
12.0
 20
9.0
  9
$UNITMODE
 70
     0
  9
$VISRETAIN
 70
     1
  9
$PLINEGEN
 70
     0
  9
$PSLTSCALE
 70
     1
  9
$TREEDEPTH
 70
  3020
  9
$CMLSTYLE
  2
Standard
  9
$CMLJUST
 70
     0
  9
$CMLSCALE
 40
1.0
  9
$PROXYGRAPHICS
 70
     1
  9
$MEASUREMENT
 70
     0
  9
$CELWEIGHT
370
    -1
  9
$ENDCAPS
280
     0
  9
$JOINSTYLE
280
     0
  9
$LWDISPLAY
290
     0
  9
$INSUNITS
 70
     0
  9
$HYPERLINKBASE
  1

  9
$STYLESHEET
  1

  9
$XEDIT
290
     1
  9
$CEPSNTYPE
380
     0
  9
$PSTYLEMODE
290
     1
  9
$FINGERPRINTGUID
  2
{E5D2C7B4-3E08-4E2E-A54C-53BA1A535308}
  9
$VERSIONGUID
  2
{B86A79C9-8CB2-4C00-B31D-764E37E45231}
  9
$EXTNAMES
290
     1
  9
$PSVPSCALE
 40
0.0
  9
$OLESTARTUP
290
     0
  0
ENDSEC
  0
SECTION
  2
CLASSES
  0
CLASS
  1
ACDBDICTIONARYWDFLT
  2
AcDbDictionaryWithDefault
  3
ObjectDBX Classes
 90
        0
280
     0
281
     0
  0
CLASS
  1
MATERIAL
  2
AcDbMaterial
  3
ObjectDBX Classes
 90
     1153
280
     0
281
     0
  0
CLASS
  1
VISUALSTYLE
  2
AcDbVisualStyle
  3
ObjectDBX Classes
 90
     4095
280
     0
281
     0
  0
CLASS
  1
SCALE
  2
AcDbScale
  3
ObjectDBX Classes
 90
     1153
280
     0
281
     0
  0
CLASS
  1
TABLESTYLE
  2
AcDbTableStyle
  3
ObjectDBX Classes
 90
     4095
280
     0
281
     0
  0
CLASS
  1
MLEADERSTYLE
  2
AcDbMLeaderStyle
  3
ACDB_MLEADERSTYLE_CLASS
 90
     4095
280
     0
281
     0
  0
CLASS
  1
AMGSETTINGSOBJ
  2
AmgSettingsObj
  3
"AcadM|Product Description: AutoCAD Mechanical|Company: Autodesk, Inc."
 90
     1024
280
     0
281
     0
  0
CLASS
  1
ACME_DOCUMENT
  2
AcMeDbDoc
  3
AcMeServices
 90
     1024
280
     0
281
     0
  0
CLASS
  1
ACMESCOPE
  2
AcMeScope
  3
AcMeServices
 90
     1024
280
     0
281
     0
  0
CLASS
  1
ACMECOMMANDHISTORY
  2
AcMeCommandHistory
  3
AcMeServices
 90
     1024
280
     0
281
     0
  0
CLASS
  1
ACIMSYSVARMAN
  2
AcImSysVarManager
  3
AcMeServices
 90
     1024
280
     0
281
     0
  0
CLASS
  1
ACIMINTSYSVAR
  2
AcImIntSysVar
  3
AcMeServices
 90
     1024
280
     0
281
     0
  0
CLASS
  1
ACMEDRAWINGMAN
  2
AcMeDrawingMan
  3
AcMeServices
 90
     1024
280
     0
281
     0
  0
CLASS
  1
ACMEVIEW
  2
AcMeView
  3
AcMeServices
 90
     1024
280
     0
281
     0
  0
CLASS
  1
ACDBENTITYCACHE
  2
AcMeEntityCache
  3
AcMeServices
 90
     1024
280
     0
281
     0
  0
CLASS
  1
ACMESTATEMGR
  2
AcMeStateMgr
  3
AcMeServices
 90
     1024
280
     0
281
     0
  0
CLASS
  1
ACGREFMASTER
  2
AcGrefMaster
  3
AcAttribServices
 90
     1024
280
     0
281
     0
  0
CLASS
  1
AM_DRAWING_MGR
  2
AcDmDwgMgr
  3
AcMechDwgViewMgmt
 90
     1024
280
     0
281
     0
  0
CLASS
  1
AM_DWG_DOCUMENT
  2
AcDmDwgDocument
  3
AcMechDwgViewMgmt
 90
     1024
280
     0
281
     0
  0
CLASS
  1
AM_DWG_SHEET
  2
AcDmSheet
  3
AcMechDwgViewMgmt
 90
     1024
280
     0
281
     0
  0
CLASS
  1
AM_VIEWDIMPARMAP
  2
AcDmViewDimParMap
  3
AcMechDwgViewMgmt
 90
     1024
280
     0
281
     0
  0
CLASS
  1
AMDTINTERNALREACTOR
  2
AmdtInternalReactor
  3
AcMeServices
 90
     1024
280
     0
281
     0
  0
CLASS
  1
ACIMREALSYSVAR
  2
AcImRealSysVar
  3
AcMeServices
 90
     1024
280
     0
281
     0
  0
CLASS
  1
AM_DWGMGR_NAME
  2
AcDmDwgMgrName
  3
AcMechDwgViewMgmt
 90
     1024
280
     0
281
     0
  0
CLASS
  1
ACME_DATABASE
  2
AcMeDbDatabase
  3
AcMeServices
 90
     1024
280
     0
281
     0
  0
CLASS
  1
ACRFINSADJUSTERMGR
  2
AcRfInsAdjusterMgr
  3
AcMeServices
 90
     1024
280
     0
281
     0
  0
CLASS
  1
ACGREFACADMASTER
  2
AcGrefacadMaster
  3
AcGrefServices
 90
     1024
280
     0
281
     0
  0
CLASS
  1
AMDTMENUSTATEMGR
  2
AmdtMenuStateMgr
  3
McadcomServices
 90
     1024
280
     0
281
     0
  0
CLASS
  1
AMDTMCOMMENUSTATE
  2
AmdtMcomMenuState
  3
McadcomServices
 90
     1024
280
     0
281
     0
  0
CLASS
  1
AMIMASTER
  2
AmiMaster
  3
AmiServices
 90
     1024
280
     0
281
     0
  0
CLASS
  1
MAPIAMMOUDLE
  2
MApiAmModule
  3
MApiAmServices
 90
     1024
280
     0
281
     0
  0
CLASS
  1
ACIMSTRSYSVAR
  2
AcImStrSysVar
  3
AcMeServices
 90
     1024
280
     0
281
     0
  0
CLASS
  1
AMDTADMENUSTATE
  2
AmdtAdMenuState
  3
DesignerServices
 90
     1024
280
     0
281
     0
  0
CLASS
  1
ADAPPL
  2
AcAdAppl
  3
DesignerServices
 90
     1024
280
     0
281
     0
  0
CLASS
  1
DEPMGR
  2
AcAdDepMgr
  3
DesignerServices
 90
     1024
280
     0
281
     0
  0
CLASS
  1
PARAMMGR
  2
AcAdParamMgr
  3
DesignerServices
 90
     1024
280
     0
281
     0
  0
CLASS
  1
PARAMSCOPE
  2
AcAdParamScope
  3
DesignerServices
 90
     1024
280
     0
281
     0
  0
CLASS
  1
NAMEDAPPL
  2
AcAdNamedAppl
  3
DesignerServices
 90
     1024
280
     0
281
     0
  0
CLASS
  1
AMDTDMMENUSTATE
  2
AmdtDmMenuState
  3
AcMechDwgViewMgmt
 90
     1024
280
     0
281
     0
  0
CLASS
  1
AMDTAMMENUSTATE
  2
AmdtAmMenuState
  3
DesignerAssemblies
 90
     1024
280
     0
281
     0
  0
CLASS
  1
ACAMPROJECT
  2
AcAmProject
  3
DesignerAssemblies
 90
     1024
280
     0
281
     0
  0
CLASS
  1
ACAMGRCOMPDEF
  2
AcAmGrCompDef
  3
DesignerAssemblies
 90
     1024
280
     0
281
     0
  0
CLASS
  1
ACAMCOMPDEF
  2
AcAmCompDef
  3
DesignerAssemblies
 90
     1024
280
     0
281
     0
  0
CLASS
  1
ACAMCOMPDEFMGR
  2
AcAmCompDefMgr
  3
DesignerAssemblies
 90
     1024
280
     0
281
     0
  0
CLASS
  1
AMCONTEXTMGR
  2
AcAmContextMgr
  3
DesignerAssemblies
 90
     1024
280
     0
281
     0
  0
CLASS
  1
ACAMCONTEXTMODELER
  2
AcAmContextModeler
  3
DesignerAssemblies
 90
     1024
280
     0
281
     0
  0
CLASS
  1
ACMDATADICTIONARY
  2
AcmDataDictionary
  3
"AcmSymBB|Product Description: AutoCAD Mechanical|Company: Autodesk, Inc."
 90
     1024
280
     0
281
     0
  0
CLASS
  1
CATALOGSTATE
  2
AcAmCatalogState
  3
DesignerAssemblies
 90
     1024
280
     0
281
     0
  0
CLASS
  1
ACAMGRCOMPDEFSET
  2
AcAmGrCompDefSet
  3
DesignerAssemblies
 90
     1024
280
     0
281
     0
  0
CLASS
  1
AMDTBROWSERDBTAB
  2
AmdtBrowserDbTab
  3
McadcomServices
 90
     1024
280
     0
281
     0
  0
CLASS
  1
CBROWSERAPPOBJECT
  2
CBrowserAppObject
  3
McadcomServices
 90
     1024
280
     0
281
     0
  0
CLASS
  1
DM_PLACEHOLDER
  2
AcDmSelsetPlaceholder
  3
AcMechDwgViewMgmt
 90
     1024
280
     0
281
     0
  0
CLASS
  1
EXACXREFPANELOBJECT
  2
ExAcXREFPanelObject
  3
EXAC_ESW
 90
     1025
280
     0
281
     0
  0
CLASS
  1
NPOCOLLECTION
  2
AcDbImpNonPersistentObjectsCollection
  3
ObjectDBX Classes
 90
     1153
280
     0
281
     0
  0
CLASS
  1
ACMSTANDARDANSI
  2
AcmStandardANSI
  3
"Amdt_StdImp|Product Description: AutoCAD Mechanical|Company: Autodesk, Inc."
 90
     1024
280
     0
281
     0
  0
CLASS
  1
ACMSURFSTANDARDANSI
  2
AcmSurfTextStdANSI
  3
"Amdt_StdImp|Product Description: AutoCAD Mechanical|Company: Autodesk, Inc."
 90
     1024
280
     0
281
     0
  0
CLASS
  1
ACMFCFSTANDARDANSI
  2
AcmFCFStdANSI
  3
"Amdt_StdImp|Product Description: AutoCAD Mechanical|Company: Autodesk, Inc."
 90
     1024
280
     0
281
     0
  0
CLASS
  1
ACMWELDSTANDARDANSI
  2
AcmWeldingStdANSI
  3
"Amdt_StdImp|Product Description: AutoCAD Mechanical|Company: Autodesk, Inc."
 90
     1024
280
     0
281
     0
  0
CLASS
  1
ACMIDSTANDARDANSI
  2
AcmIdStdANSI
  3
"Amdt_StdImp|Product Description: AutoCAD Mechanical|Company: Autodesk, Inc."
 90
     1024
280
     0
281
     0
  0
CLASS
  1
ACMDATUMSTANDARDANSI
  2
AcmDatumStdANSI
  3
"Amdt_StdImp|Product Description: AutoCAD Mechanical|Company: Autodesk, Inc."
 90
     1024
280
     0
281
     0
  0
CLASS
  1
ACMBOMSTANDARDANSI
  2
AcmBOMStdANSI
  3
"Amdt_StdImp|Product Description: AutoCAD Mechanical|Company: Autodesk, Inc."
 90
     1024
280
     0
281
     0
  0
CLASS
  1
ACMDETAILSTANDARDANSI
  2
AmdtDetailSymStdANSI
  3
"Amdt_StdImp|Product Description: AutoCAD Mechanical|Company: Autodesk, Inc."
 90
     1024
280
     0
281
     0
  0
CLASS
  1
ACMSECTIONSTANDARDANSI
  2
AmdtSectionSymStdANSI
  3
"Amdt_StdImp|Product Description: AutoCAD Mechanical|Company: Autodesk, Inc."
 90
     1024
280
     0
281
     0
  0
CLASS
  1
ACMCENTERLINESTANDARDANSI
  2
AmdtCenterLineStdANSI
  3
"Amdt_StdImp|Product Description: AutoCAD Mechanical|Company: Autodesk, Inc."
 90
     1024
280
     0
281
     0
  0
CLASS
  1
ACMTHREADLINESTANDARDANSI
  2
AmdtThreadLineStdANSI
  3
"Amdt_StdImp|Product Description: AutoCAD Mechanical|Company: Autodesk, Inc."
 90
     1024
280
     0
281
     0
  0
CLASS
  1
ACMNOTESTANDARDANSI
  2
AmdtNoteStdANSI
  3
"Amdt_StdImp|Product Description: AutoCAD Mechanical|Company: Autodesk, Inc."
 90
     1024
280
     0
281
     0
  0
CLASS
  1
ACMTAPERSTANDARDANSI
  2
AcmTaperStdANSI
  3
"Amdt_StdImp|Product Description: AutoCAD Mechanical|Company: Autodesk, Inc."
 90
     1024
280
     0
281
     0
  0
CLASS
  1
ACMANOOTATIONVIEWSTANDARDANSI
  2
AmdtAnViewStdANSI
  3
"Amdt_StdImp|Product Description: AutoCAD Mechanical|Company: Autodesk, Inc."
 90
     1024
280
     0
281
     0
  0
CLASS
  1
ACAMGLAYSTD
  2
AcAmgLayStd
  3
"AmgLay|Product Description: AutoCAD Mechanical|Company: Autodesk, Inc."
 90
     1024
280
     0
281
     0
  0
CLASS
  1
ACAMGDIMSTD
  2
AcAmgDimStd
  3
"AmgDim|Product Description: AutoCAD Mechanical|Company: Autodesk, Inc."
 90
     1024
280
     0
281
     0
  0
CLASS
  1
ACAMGHOLECHARTSTDANSI
  2
AcAmgHoleChartStdANSI
  3
AmgDim|Product Description: AutoCAD Mechanical|Company: Autodesk, Inc.
 90
     1024
280
     0
281
     0
  0
CLASS
  1
AMGOBJPROPCFG
  2
AmgObjPropCfg
  3
"AmgLay|Product Description: AutoCAD Mechanical|Company: Autodesk, Inc."
 90
     1025
280
     0
281
     0
  0
CLASS
  1
ACAMGTITLESTD
  2
AcAmgTitleStd
  3
"AmgTitle|Product Description: AutoCAD Mechanical|Company: Autodesk, Inc."
 90
     4095
280
     0
281
     0
  0
CLASS
  1
AMDTNOTETEMPLATEDB
  2
AmdtNoteTemplateDB
  3
AcmSymBB|Product Description: AutoCAD Mechanical|Company: Autodesk, Inc.
 90
     1024
280
     0
281
     0
  0
CLASS
  1
VLO-VL
  2
vlo_VL
  3
VL|AutoLISP based application
 90
      129
280
     0
281
     0
  0
CLASS
  1
ACAMGFILTERDAT
  2
AcAmgFilterDat
  3
"AcadM|Product Description: AutoCAD Mechanical|Company: Autodesk, Inc."
 90
    33792
280
     0
281
     0
  0
CLASS
  1
DICTIONARYVAR
  2
AcDbDictionaryVar
  3
ObjectDBX Classes
 90
        0
280
     0
281
     0
  0
CLASS
  1
CELLSTYLEMAP
  2
AcDbCellStyleMap
  3
ObjectDBX Classes
 90
     1152
280
     0
281
     0
  0
CLASS
  1
SORTENTSTABLE
  2
AcDbSortentsTable
  3
ObjectDBX Classes
 90
    32768
280
     0
281
     0
  0
CLASS
  1
AEC_REFEDIT_STATUS_TRACKER
  2
AecDbRefEditStatusTracker
  3
AecArchBase60|Product Desc: Autodesk Architectural Desktop 2007 |Company: Autodesk,Inc. |WEB Address: www.autodesk.com
 90
    32897
280
     0
281
     0
  0
CLASS
  1
ACDBPLACEHOLDER
  2
AcDbPlaceHolder
  3
ObjectDBX Classes
 90
        0
280
     0
281
     0
  0
CLASS
  1
LAYOUT
  2
AcDbLayout
  3
ObjectDBX Classes
 90
        0
280
     0
281
     0
  0
ENDSEC
  0
SECTION
  2
TABLES
  0
TABLE
  2
VPORT
  5
42BF
330
0
100
AcDbSymbolTable
 70
     1
  0
VPORT
  5
4331
330
42BF
100
AcDbSymbolTableRecord
100
AcDbViewportTableRecord
  2
*ACTIVE
 70
     0
 10
0.0
 20
0.0
 11
1.0
 21
1.0
 12
530.6398586949078
 22
158.1874638547269
 13
0.0
 23
0.0
 14
0.5
 24
0.5
 15
0.5
 25
0.5
 16
0.0
 26
0.0
 36
1.0
 17
0.0
 27
0.0
 37
0.0
 40
35.04756793959839
 41
1.496765847347994
 42
50.0
 43
0.0
 44
0.0
 50
0.0
 51
0.0
 71
     0
 72
  1000
 73
     1
 74
     3
 75
     0
 76
     0
 77
     0
 78
     0
281
     0
 65
     0
110
0.0
120
0.0
130
0.0
111
1.0
121
0.0
131
0.0
112
0.0
122
1.0
132
0.0
 79
     0
146
0.0
  0
ENDTAB
  0
TABLE
  2
LTYPE
  5
42BC
330
0
100
AcDbSymbolTable
 70
    16
  0
LTYPE
  5
431C
330
42BC
100
AcDbSymbolTableRecord
100
AcDbLinetypeTableRecord
  2
ByBlock
 70
     0
  3

 72
    65
 73
     0
 40
0.0
  0
LTYPE
  5
431D
330
42BC
100
AcDbSymbolTableRecord
100
AcDbLinetypeTableRecord
  2
ByLayer
 70
     0
  3

 72
    65
 73
     0
 40
0.0
  0
LTYPE
  5
431E
330
42BC
100
AcDbSymbolTableRecord
100
AcDbLinetypeTableRecord
  2
CONTINUOUS
 70
     0
  3
Solid line
 72
    65
 73
     0
 40
0.0
  0
LTYPE
  5
4332
330
42BC
100
AcDbSymbolTableRecord
100
AcDbLinetypeTableRecord
  2
CENTER2
 70
     0
  3
Center (.5x) ___ _ ___ _ ___ _ ___ _ ___ _ ___
 72
    65
 73
     4
 40
28.575
 49
19.05
 74
     0
 49
-3.174999999999998
 74
     0
 49
3.174999999999998
 74
     0
 49
-3.174999999999998
 74
     0
  0
LTYPE
  5
4333
330
42BC
100
AcDbSymbolTableRecord
100
AcDbLinetypeTableRecord
  2
HIDDEN2
 70
     0
  3
Hidden (.5x) _ _ _ _ _ _ _ _ _ _ _ _ _ _ _ _ _
 72
    65
 73
     2
 40
4.762499999999998
 49
3.174999999999998
 74
     0
 49
-1.587499999999999
 74
     0
  0
LTYPE
  5
4334
330
42BC
100
AcDbSymbolTableRecord
100
AcDbLinetypeTableRecord
  2
CENTER
 70
     0
  3
____ _ ____ _ ____ _ ____ _ ____ _ ____ _ ____
 72
    65
 73
     4
 40
0.6
 49
0.375
 74
     0
 49
-0.075
 74
     0
 49
0.075
 74
     0
 49
-0.075
 74
     0
  0
LTYPE
  5
4335
330
42BC
100
AcDbSymbolTableRecord
100
AcDbLinetypeTableRecord
  2
HIDDEN
 70
     0
  3
Hidden __ __ __ __ __ __ __ __ __ __ __ __ __ __
 72
    65
 73
     2
 40
0.375
 49
0.25
 74
     0
 49
-0.125
 74
     0
  0
LTYPE
  5
4336
330
42BC
100
AcDbSymbolTableRecord
100
AcDbLinetypeTableRecord
  2
PHANTOM2
 70
     0
  3
Phantom (.5x) ___ _ _ ___ _ _ ___ _ _ ___ _ _
 72
    65
 73
     6
 40
1.25
 49
0.625
 74
     0
 49
-0.125
 74
     0
 49
0.125
 74
     0
 49
-0.125
 74
     0
 49
0.125
 74
     0
 49
-0.125
 74
     0
  0
LTYPE
  5
433A
330
42BC
100
AcDbSymbolTableRecord
100
AcDbLinetypeTableRecord
  2
AMCONSTR
 70
     0
  3
_______________________
 72
    65
 73
     2
 40
9999.0
 49
9999.0
 74
     0
 49
0.0
 74
     0
  0
LTYPE
  5
433E
330
42BC
100
AcDbSymbolTableRecord
100
AcDbLinetypeTableRecord
  2
AMZIGZAG2
 70
     0
  3
/\/-/\/-/\/-/\/-/\/-/\/
 72
    65
 73
     2
 40
0.4401
 49
0.0001
 74
     0
 49
-0.4400000000000003
 74
     0
  0
LTYPE
  5
433F
330
42BC
100
AcDbSymbolTableRecord
100
AcDbLinetypeTableRecord
  2
ACANSTGB
 70
     0
  3
__ . . __ . .
 72
    65
 73
     6
 40
0.35433070866
 49
0.15748031496
 74
     0
 49
-0.03937007874
 74
     0
 49
0.03937007874
 74
     0
 49
-0.03937007874
 74
     0
 49
0.03937007874
 74
     0
 49
-0.03937007874
 74
     0
  0
LTYPE
  5
4340
330
42BC
100
AcDbSymbolTableRecord
100
AcDbLinetypeTableRecord
  2
ACANSTGL
 70
     0
  3
_ _ _ _ _
 72
    65
 73
     2
 40
0.11811023622
 49
0.07874015748
 74
     0
 49
-0.03937007874
 74
     0
  0
LTYPE
  5
4AA4
330
42BC
100
AcDbSymbolTableRecord
100
AcDbLinetypeTableRecord
  2
AM_ISO02W050
 70
     0
  3
__ __ __ __ __ __ __ __ __ __ __ __ __ __ __
 72
    65
 73
     2
 40
7.5
 49
6.0
 74
     0
 49
-1.5
 74
     0
  0
LTYPE
  5
4AA5
330
42BC
100
AcDbSymbolTableRecord
100
AcDbLinetypeTableRecord
  2
AM_ISO08W050
 70
     0
  3
____ . ____ . ____ . ____ . ____ . ____ . ____
 72
    65
 73
     4
 40
18.0
 49
12.0
 74
     0
 49
-1.5
 74
     0
 49
3.0
 74
     0
 49
-1.5
 74
     0
  0
LTYPE
  5
4AA6
330
42BC
100
AcDbSymbolTableRecord
100
AcDbLinetypeTableRecord
  2
AM_ISO09W050
 70
     0
  3
_____ . . _____ . . _____ . . ____ .. ____
 72
    65
 73
     6
 40
22.5
 49
12.0
 74
     0
 49
-1.5
 74
     0
 49
3.0
 74
     0
 49
-1.5
 74
     0
 49
3.0
 74
     0
 49
-1.5
 74
     0
  0
LTYPE
  5
4AA7
330
42BC
100
AcDbSymbolTableRecord
100
AcDbLinetypeTableRecord
  2
AM_ISO08W050x2
 70
     0
  3
__ . __ . __ . __ . __ . __
 72
    65
 73
     4
 40
9.0
 49
6.0
 74
     0
 49
-0.75
 74
     0
 49
1.5
 74
     0
 49
-0.75
 74
     0
  0
LTYPE
  5
4AA8
330
42BC
100
AcDbSymbolTableRecord
100
AcDbLinetypeTableRecord
  2
AM_ISO02W050x2
 70
     0
  3
 _ _ _ _ _ _ _ _ _ _ _ _
 72
    65
 73
     2
 40
3.75
 49
3.0
 74
     0
 49
-0.75
 74
     0
  0
LTYPE
  5
4AAB
330
42BC
100
AcDbSymbolTableRecord
100
AcDbLinetypeTableRecord
  2
Amzigzag
 70
     0
  3
/\/-/\/-/\/-/\/-/\/-/\/
 72
    65
 73
     2
 40
11.0001
 49
0.0001
 74
     4
 75
   136
340
4AAA
 46
0.04
 50
0.0
 44
0.0
 45
0.0
 49
-11.0
 74
     0
  0
ENDTAB
  0
TABLE
  2
LAYER
  5
42B9
102
{ACAD_XDICTIONARY
360
46A5
102
}
330
0
100
AcDbSymbolTable
 70
     7
  0
LAYER
  5
4316
102
{ACAD_XDICTIONARY
360
44F0
102
}
330
42B9
100
AcDbSymbolTableRecord
100
AcDbLayerTableRecord
  2
0
 70
     0
 62
     7
  6
CONTINUOUS
370
    20
390
42C6
  0
LAYER
  5
4341
102
{ACAD_XDICTIONARY
360
44F2
102
}
330
42B9
100
AcDbSymbolTableRecord
100
AcDbLayerTableRecord
  2
中心线
 70
     0
 62
     1
  6
CENTER2
370
    13
390
42C6
  0
LAYER
  5
4342
102
{ACAD_XDICTIONARY
360
44F4
102
}
330
42B9
100
AcDbSymbolTableRecord
100
AcDbLayerTableRecord
  2
虚线
 70
     0
 62
     4
  6
HIDDEN2
370
    13
390
42C6
  0
LAYER
  5
4343
330
42B9
100
AcDbSymbolTableRecord
100
AcDbLayerTableRecord
  2
DEFPOINTS
 70
     0
 62
     7
  6
CONTINUOUS
290
     0
370
    -3
390
42C6
  0
LAYER
  5
4344
102
{ACAD_XDICTIONARY
360
44F6
102
}
330
42B9
100
AcDbSymbolTableRecord
100
AcDbLayerTableRecord
  2
标注
 70
     0
 62
    80
  6
CONTINUOUS
370
    13
390
42C6
  0
LAYER
  5
4345
102
{ACAD_XDICTIONARY
360
44F8
102
}
330
42B9
100
AcDbSymbolTableRecord
100
AcDbLayerTableRecord
  2
截面层
 70
     0
 62
     6
  6
CONTINUOUS
370
    20
390
42C6
  0
LAYER
  5
4347
102
{ACAD_XDICTIONARY
360
44FA
102
}
330
42B9
100
AcDbSymbolTableRecord
100
AcDbLayerTableRecord
  2
细实线
 70
     0
 62
     7
  6
CONTINUOUS
370
    15
390
42C6
  0
ENDTAB
  0
TABLE
  2
STYLE
  5
42BA
330
0
100
AcDbSymbolTable
 70
     5
  0
STYLE
  5
4317
330
42BA
100
AcDbSymbolTableRecord
100
AcDbTextStyleTableRecord
  2
STANDARD
 70
     0
 40
0.0
 41
1.0
 50
0.0
 71
     0
 42
0.2
  3
SimSun.ttf
  4

1001
ACAD
1000
SimSun
1071
    34306
  0
STYLE
  5
434B
330
42BA
100
AcDbSymbolTableRecord
100
AcDbTextStyleTableRecord
  2
ACANSGDT
 70
     0
 40
0.0
 41
1.0
 50
0.0
 71
     0
 42
0.2
  3
amgdt.shx
  4

  0
STYLE
  5
469E
330
42BA
100
AcDbSymbolTableRecord
100
AcDbTextStyleTableRecord
  2
Roman
 70
     0
 40
0.0
 41
1.0
 50
0.0
 71
     0
 42
0.065
  3
arial_4.ttf
  4

1001
ACAD
1000
Arial
1071
       34
  0
STYLE
  5
4AAA
330
42BA
100
AcDbSymbolTableRecord
100
AcDbTextStyleTableRecord
  2

 70
     1
 40
0.0
 41
1.0
 50
0.0
 71
     0
 42
0.2
  3
genltshp.shx
  4

  0
STYLE
  5
4AAD
330
42BA
100
AcDbSymbolTableRecord
100
AcDbTextStyleTableRecord
  2
ACANSTS
 70
     0
 40
1.0
 41
1.0
 50
0.0
 71
     0
 42
0.2
  3
romans.shx
  4
gbcbig.shx
  0
ENDTAB
  0
TABLE
  2
VIEW
  5
42BD
330
0
100
AcDbSymbolTable
 70
     0
  0
ENDTAB
  0
TABLE
  2
UCS
  5
42BE
330
0
100
AcDbSymbolTable
 70
     0
  0
ENDTAB
  0
TABLE
  2
APPID
  5
42C0
330
0
100
AcDbSymbolTable
 70
    29
  0
APPID
  5
4318
330
42C0
100
AcDbSymbolTableRecord
100
AcDbRegAppTableRecord
  2
ACAD
 70
     0
  0
APPID
  5
431F
330
42C0
100
AcDbSymbolTableRecord
100
AcDbRegAppTableRecord
  2
ACADANNOTATIVE
 70
     0
  0
APPID
  5
434C
330
42C0
100
AcDbSymbolTableRecord
100
AcDbRegAppTableRecord
  2
ACAECLAYERSTANDARD
 70
     0
  0
APPID
  5
434D
330
42C0
100
AcDbSymbolTableRecord
100
AcDbRegAppTableRecord
  2
ACAD_DSTYLE_DIMEXT_LENGTH
 70
     0
  0
APPID
  5
434E
330
42C0
100
AcDbSymbolTableRecord
100
AcDbRegAppTableRecord
  2
ACAD_DSTYLE_DIMEXT_ENABLED
 70
     0
  0
APPID
  5
434F
330
42C0
100
AcDbSymbolTableRecord
100
AcDbRegAppTableRecord
  2
ACAD_DSTYLE_DIMJOGGED_JOGA
 70
     0
  0
APPID
  5
4350
330
42C0
100
AcDbSymbolTableRecord
100
AcDbRegAppTableRecord
  2
ACAD_DSTYLE_DIMARC_LENGTH_
 70
     0
  0
APPID
  5
4351
330
42C0
100
AcDbSymbolTableRecord
100
AcDbRegAppTableRecord
  2
ACAD_PSEXT
 70
     0
  0
APPID
  5
4352
330
42C0
100
AcDbSymbolTableRecord
100
AcDbRegAppTableRecord
  2
ACAD_DSTYLE_DIMJAG
 70
     0
  0
APPID
  5
4353
330
42C0
100
AcDbSymbolTableRecord
100
AcDbRegAppTableRecord
  2
ACAD_DSTYLE_DIMTALN
 70
     0
  0
APPID
  5
4354
330
42C0
100
AcDbSymbolTableRecord
100
AcDbRegAppTableRecord
  2
ACAD_MLEADERVER
 70
     0
  0
APPID
  5
4355
330
42C0
100
AcDbSymbolTableRecord
100
AcDbRegAppTableRecord
  2
ACAD_DSTYLE_DIMRADIAL_EXTENSION
 70
     0
  0
APPID
  5
4356
330
42C0
100
AcDbSymbolTableRecord
100
AcDbRegAppTableRecord
  2
ACAD_EXEMPT_FROM_CAD_STANDARDS
 70
     0
  0
APPID
  5
4357
330
42C0
100
AcDbSymbolTableRecord
100
AcDbRegAppTableRecord
  2
MCAD_NO_VIS
 70
     0
  0
APPID
  5
4358
330
42C0
100
AcDbSymbolTableRecord
100
AcDbRegAppTableRecord
  2
ACAD_TEMP_GRAPHIC
 70
     0
  0
APPID
  5
4359
330
42C0
100
AcDbSymbolTableRecord
100
AcDbRegAppTableRecord
  2
AD_DRAW
 70
     0
  0
APPID
  5
435A
330
42C0
100
AcDbSymbolTableRecord
100
AcDbRegAppTableRecord
  2
ACATTRIBSERVICES
 70
     0
  0
APPID
  5
435B
330
42C0
100
AcDbSymbolTableRecord
100
AcDbRegAppTableRecord
  2
DESIGNERASSEMBLIES
 70
     0
  0
APPID
  5
435C
330
42C0
100
AcDbSymbolTableRecord
100
AcDbRegAppTableRecord
  2
ACADM_DIM_EDIT
 70
     0
  0
APPID
  5
435D
330
42C0
100
AcDbSymbolTableRecord
100
AcDbRegAppTableRecord
  2
AMDT_DM_ADJ
 70
     0
  0
APPID
  5
435E
330
42C0
100
AcDbSymbolTableRecord
100
AcDbRegAppTableRecord
  2
ACAD_DSTYLE_DIMBREAK
 70
     0
  0
APPID
  5
435F
330
42C0
100
AcDbSymbolTableRecord
100
AcDbRegAppTableRecord
  2
ACAD_DSTYLE_DIMINSPECT
 70
     0
  0
APPID
  5
4360
330
42C0
100
AcDbSymbolTableRecord
100
AcDbRegAppTableRecord
  2
GENIUS_GENODEF_13
 70
     0
  0
APPID
  5
4361
330
42C0
100
AcDbSymbolTableRecord
100
AcDbRegAppTableRecord
  2
GENIUS_GENOBJ-N-FIL_13
 70
     0
  0
APPID
  5
4537
330
42C0
100
AcDbSymbolTableRecord
100
AcDbRegAppTableRecord
  2
AcadAnnoPO
 70
     0
  0
APPID
  5
46A4
330
42C0
100
AcDbSymbolTableRecord
100
AcDbRegAppTableRecord
  2
ACAD_DSTYLE_DIMJOGGED_JOGANGLE_SYMBOL
 70
     0
  0
APPID
  5
4A30
330
42C0
100
AcDbSymbolTableRecord
100
AcDbRegAppTableRecord
  2
ACAD_DSTYLE_DIM_LINETYPE
 70
     0
  0
APPID
  5
4A31
330
42C0
100
AcDbSymbolTableRecord
100
AcDbRegAppTableRecord
  2
ACAD_DSTYLE_DIM_EXT1_LINETYPE
 70
     0
  0
APPID
  5
4A32
330
42C0
100
AcDbSymbolTableRecord
100
AcDbRegAppTableRecord
  2
ACAD_DSTYLE_DIM_EXT2_LINETYPE
 70
     0
  0
ENDTAB
  0
TABLE
  2
DIMSTYLE
  5
42C1
330
0
100
AcDbSymbolTable
 70
     8
100
AcDbDimStyleTable
 71
     2
340
4364
340
4319
  0
DIMSTYLE
105
4319
330
42C1
100
AcDbSymbolTableRecord
100
AcDbDimStyleTableRecord
  2
STANDARD
 70
     0
274
     1
279
     2
284
     8
285
     8
286
     8
340
4317
  0
DIMSTYLE
105
4364
102
{ACAD_REACTORS
330
4846
330
4854
330
4862
330
4870
330
487E
102
}
330
42C1
100
AcDbSymbolTableRecord
100
AcDbDimStyleTableRecord
  2
副本STANDARD
 70
     0
  3
"
  4
"
 41
0.65
 42
0.88
 43
0.015
 44
0.32
 73
     0
 74
     0
 78
     8
140
0.65
143
0.03937
147
0.2
171
     1
172
     1
176
     3
177
     3
178
     3
271
     3
272
     3
274
     1
276
     2
277
     5
279
     2
284
     8
285
     8
286
     8
340
4317
371
    13
372
    13
1001
ACAD_DSTYLE_DIMJAG
1070
   388
1040
1.5
1001
ACAD_DSTYLE_DIMTALN
1070
   392
1070
     0
1001
ACAD_DSTYLE_DIM_LINETYPE
1070
   380
1005
431E
1001
ACAD_DSTYLE_DIM_EXT1_LINETYPE
1070
   381
1005
431E
1001
ACAD_DSTYLE_DIM_EXT2_LINETYPE
1070
   382
1005
431E
  0
DIMSTYLE
105
4365
102
{ACAD_REACTORS
330
4D45
102
}
330
42C1
100
AcDbSymbolTableRecord
100
AcDbDimStyleTableRecord
  2
AM_ANSI
 70
     0
  4
mm
 41
0.12
 42
0.05
 43
0.5
 44
0.1
 47
0.1
 48
0.1
 78
     7
140
0.12
141
0.0
146
0.71
147
0.06
176
   256
177
   256
178
     2
274
     1
279
     2
284
     8
285
     8
286
     8
340
4317
  0
DIMSTYLE
105
4366
330
42C1
100
AcDbSymbolTableRecord
100
AcDbDimStyleTableRecord
  2
AM_ANSI$3
 70
     0
  4
mm
 41
0.12
 42
0.05
 43
0.5
 44
0.1
 47
0.1
 48
0.1
 78
     7
140
0.12
141
0.0
146
0.71
147
0.06
176
   256
177
   256
178
     2
274
     1
279
     2
284
     8
285
     8
286
     8
340
4317
  0
DIMSTYLE
105
4367
330
42C1
100
AcDbSymbolTableRecord
100
AcDbDimStyleTableRecord
  2
AM_ANSI$4
 70
     0
  4
mm
 41
0.12
 42
0.05
 43
0.5
 44
0.1
 47
0.1
 48
0.1
 78
     7
140
0.12
141
0.0
146
0.71
147
0.06
176
   256
177
   256
178
     2
274
     1
279
     2
284
     8
285
     8
286
     8
340
4317
  0
DIMSTYLE
105
4368
330
42C1
100
AcDbSymbolTableRecord
100
AcDbDimStyleTableRecord
  2
AM_ANSI$7
 70
     0
  4
mm
 41
0.12
 42
0.05
 43
0.5
 44
0.1
 47
0.1
 48
0.1
 78
     7
140
0.12
141
0.0
146
0.71
147
0.06
176
   256
177
   256
178
     2
274
     1
279
     2
284
     8
285
     8
286
     8
340
4317
  0
DIMSTYLE
105
4369
330
42C1
100
AcDbSymbolTableRecord
100
AcDbDimStyleTableRecord
  2
AM_ANSI$SF
 70
     0
  4
mm
 41
0.12
 42
0.05
 43
0.5
 44
0.1
 47
0.1
 48
0.1
 75
     1
 76
     1
 78
     7
140
0.12
141
0.0
146
0.71
147
0.06
176
   256
177
   256
178
     2
274
     1
279
     2
284
     8
285
     8
286
     8
340
4317
  0
DIMSTYLE
105
436A
330
42C1
100
AcDbSymbolTableRecord
100
AcDbDimStyleTableRecord
  2
AM_ANSI$SH
 70
     0
  4
mm
 41
0.12
 42
0.05
 43
0.5
 44
0.1
 47
0.1
 48
0.1
 75
     1
 76
     1
 78
     7
140
0.12
141
0.0
146
0.71
147
0.06
173
     1
176
   256
177
   256
178
     2
274
     1
279
     2
284
     8
285
     8
286
     8
340
4317
  0
ENDTAB
  0
TABLE
  2
BLOCK_RECORD
  5
42B8
330
0
100
AcDbSymbolTable
 70
    33
  0
BLOCK_RECORD
  5
432D
330
42B8
100
AcDbSymbolTableRecord
100
AcDbBlockTableRecord
  2
*Model_Space
340
4330
  0
BLOCK_RECORD
  5
4329
330
42B8
100
AcDbSymbolTableRecord
100
AcDbBlockTableRecord
  2
*Paper_Space
340
432C
  0
BLOCK_RECORD
  5
440D
330
42B8
100
AcDbSymbolTableRecord
100
AcDbBlockTableRecord
  2
*D0
340
0
  0
BLOCK_RECORD
  5
440F
330
42B8
100
AcDbSymbolTableRecord
100
AcDbBlockTableRecord
  2
*U1
340
0
102
{BLKREFS
331
3497
102
}
  0
BLOCK_RECORD
  5
4415
330
42B8
100
AcDbSymbolTableRecord
100
AcDbBlockTableRecord
  2
*D2
340
0
  0
BLOCK_RECORD
  5
4417
330
42B8
100
AcDbSymbolTableRecord
100
AcDbBlockTableRecord
  2
*U3
340
0
102
{BLKREFS
331
381B
102
}
  0
BLOCK_RECORD
  5
4419
330
42B8
100
AcDbSymbolTableRecord
100
AcDbBlockTableRecord
  2
*D4
340
0
  0
BLOCK_RECORD
  5
441B
330
42B8
100
AcDbSymbolTableRecord
100
AcDbBlockTableRecord
  2
*U5
340
0
102
{BLKREFS
331
34C3
102
}
  0
BLOCK_RECORD
  5
441D
330
42B8
100
AcDbSymbolTableRecord
100
AcDbBlockTableRecord
  2
*D6
340
0
  0
BLOCK_RECORD
  5
441F
330
42B8
100
AcDbSymbolTableRecord
100
AcDbBlockTableRecord
  2
*U7
340
0
102
{BLKREFS
331
34CD
102
}
  0
BLOCK_RECORD
  5
4421
330
42B8
100
AcDbSymbolTableRecord
100
AcDbBlockTableRecord
  2
*D8
340
0
  0
BLOCK_RECORD
  5
4423
330
42B8
100
AcDbSymbolTableRecord
100
AcDbBlockTableRecord
  2
*U9
340
0
102
{BLKREFS
331
3807
102
}
  0
BLOCK_RECORD
  5
4425
330
42B8
100
AcDbSymbolTableRecord
100
AcDbBlockTableRecord
  2
*D10
340
0
  0
BLOCK_RECORD
  5
4427
330
42B8
100
AcDbSymbolTableRecord
100
AcDbBlockTableRecord
  2
*U11
340
0
102
{BLKREFS
331
382F
102
}
  0
BLOCK_RECORD
  5
4441
330
42B8
100
AcDbSymbolTableRecord
100
AcDbBlockTableRecord
  2
*D12
340
0
  0
BLOCK_RECORD
  5
4443
330
42B8
100
AcDbSymbolTableRecord
100
AcDbBlockTableRecord
  2
*U13
340
0
102
{BLKREFS
331
34B9
102
}
  0
BLOCK_RECORD
  5
4445
330
42B8
100
AcDbSymbolTableRecord
100
AcDbBlockTableRecord
  2
*D14
340
0
  0
BLOCK_RECORD
  5
4447
330
42B8
100
AcDbSymbolTableRecord
100
AcDbBlockTableRecord
  2
*U15
340
0
102
{BLKREFS
331
3576
102
}
  0
BLOCK_RECORD
  5
4451
330
42B8
100
AcDbSymbolTableRecord
100
AcDbBlockTableRecord
  2
*D16
340
0
  0
BLOCK_RECORD
  5
4453
330
42B8
100
AcDbSymbolTableRecord
100
AcDbBlockTableRecord
  2
*U17
340
0
102
{BLKREFS
331
3811
102
}
  0
BLOCK_RECORD
  5
445F
330
42B8
100
AcDbSymbolTableRecord
100
AcDbBlockTableRecord
  2
*U18
340
0
102
{BLKREFS
331
473E
102
}
  0
BLOCK_RECORD
  5
4461
330
42B8
100
AcDbSymbolTableRecord
100
AcDbBlockTableRecord
  2
*U19
340
0
102
{BLKREFS
331
473F
102
}
  0
BLOCK_RECORD
  5
4463
330
42B8
100
AcDbSymbolTableRecord
100
AcDbBlockTableRecord
  2
*U20
340
0
102
{BLKREFS
331
4918
331
49AF
102
}
  0
BLOCK_RECORD
  5
4465
330
42B8
100
AcDbSymbolTableRecord
100
AcDbBlockTableRecord
  2
*U21
340
0
102
{BLKREFS
331
4919
331
49AC
102
}
  0
BLOCK_RECORD
  5
4467
330
42B8
100
AcDbSymbolTableRecord
100
AcDbBlockTableRecord
  2
*U22
340
0
102
{BLKREFS
331
491A
331
4B95
102
}
  0
BLOCK_RECORD
  5
4469
330
42B8
100
AcDbSymbolTableRecord
100
AcDbBlockTableRecord
  2
*U23
340
0
  0
BLOCK_RECORD
  5
446B
330
42B8
100
AcDbSymbolTableRecord
100
AcDbBlockTableRecord
  2
*U24
340
0
  0
BLOCK_RECORD
  5
446D
330
42B8
100
AcDbSymbolTableRecord
100
AcDbBlockTableRecord
  2
*U25
340
0
  0
BLOCK_RECORD
  5
4698
330
42B8
100
AcDbSymbolTableRecord
100
AcDbBlockTableRecord
  2
_Open30
340
0
  0
BLOCK_RECORD
  5
4847
330
42B8
100
AcDbSymbolTableRecord
100
AcDbBlockTableRecord
  2
*D27
340
0
  0
BLOCK_RECORD
  5
4855
330
42B8
100
AcDbSymbolTableRecord
100
AcDbBlockTableRecord
  2
*D28
340
0
  0
BLOCK_RECORD
  5
4863
330
42B8
100
AcDbSymbolTableRecord
100
AcDbBlockTableRecord
  2
*D29
340
0
  0
BLOCK_RECORD
  5
4871
330
42B8
100
AcDbSymbolTableRecord
100
AcDbBlockTableRecord
  2
*D30
340
0
  0
BLOCK_RECORD
  5
487F
330
42B8
100
AcDbSymbolTableRecord
100
AcDbBlockTableRecord
  2
*D31
340
0
  0
ENDTAB
  0
ENDSEC
  0
SECTION
  2
BLOCKS
  0
BLOCK
  5
432E
330
432D
100
AcDbEntity
  8
0
100
AcDbBlockBegin
  2
*Model_Space
 70
     0
 10
0.0
 20
0.0
 30
0.0
  3
*Model_Space
  1

  0
ENDBLK
  5
432F
330
432D
100
AcDbEntity
  8
0
100
AcDbBlockEnd
  0
BLOCK
  5
432A
330
4329
100
AcDbEntity
 67
     1
  8
0
100
AcDbBlockBegin
  2
*Paper_Space
 70
     0
 10
0.0
 20
0.0
 30
0.0
  3
*Paper_Space
  1

  0
ENDBLK
  5
432B
330
4329
100
AcDbEntity
 67
     1
  8
0
100
AcDbBlockEnd
  0
BLOCK
  5
440E
330
440D
100
AcDbEntity
  8
0
100
AcDbBlockBegin
  2
*D0
 70
     1
 10
0.0
 20
0.0
 30
0.0
  3
*D0
  1

  0
LINE
  5
3491
330
440D
100
AcDbEntity
  8
标注
  6
ByBlock
100
AcDbLine
 10
453.6164645460622
 20
161.054463058452
 30
0.0
 11
453.6164645460622
 21
152.1541856005704
 31
0.0
  0
LINE
  5
3492
330
440D
100
AcDbEntity
  8
标注
  6
ByBlock
100
AcDbLine
 10
463.616464546022
 20
161.054463058452
 30
0.0
 11
463.616464546022
 21
152.1541856005704
 31
0.0
  0
LINE
  5
3493
330
440D
100
AcDbEntity
  8
标注
  6
ByBlock
100
AcDbLine
 10
454.2664645460621
 20
152.4741856005704
 30
0.0
 11
457.8206312127088
 21
152.4741856005704
 31
0.0
  0
LINE
  5
3494
330
440D
100
AcDbEntity
  8
标注
  6
ByBlock
100
AcDbLine
 10
462.9664645460223
 20
152.4741856005704
 30
0.0
 11
459.4122978793754
 21
152.4741856005704
 31
0.0
  0
SOLID
  5
3495
330
440D
100
AcDbEntity
  8
标注
100
AcDbTrace
 10
454.2664645460621
 20
152.5825189339037
 30
0.0
 11
454.2664645460621
 21
152.3658522672371
 31
0.0
 12
453.6164645460622
 22
152.4741856005704
 32
0.0
 13
453.6164645460622
 23
152.4741856005704
 33
0.0
  0
SOLID
  5
3496
330
440D
100
AcDbEntity
  8
标注
100
AcDbTrace
 10
462.9664645460223
 20
152.5825189339037
 30
0.0
 11
462.9664645460223
 21
152.3658522672371
 31
0.0
 12
463.616464546022
 22
152.4741856005704
 32
0.0
 13
463.616464546022
 23
152.4741856005704
 33
0.0
  0
INSERT
  5
3497
330
440D
100
AcDbEntity
  8
0
100
AcDbBlockReference
  2
*U1
 10
0.0
 20
0.0
 30
0.0
  0
POINT
  5
3498
330
440D
100
AcDbEntity
  8
DEFPOINTS
 62
     0
100
AcDbPoint
 10
453.6164645460622
 20
161.934463058452
 30
0.0
  0
POINT
  5
3499
330
440D
100
AcDbEntity
  8
DEFPOINTS
 62
     0
100
AcDbPoint
 10
463.616464546022
 20
161.934463058452
 30
0.0
  0
POINT
  5
349A
330
440D
100
AcDbEntity
  8
DEFPOINTS
 62
     0
100
AcDbPoint
 10
463.616464546022
 20
152.4741856005704
 30
0.0
  0
ENDBLK
  5
33E8
330
440D
100
AcDbEntity
  8
0
100
AcDbBlockEnd
  0
BLOCK
  5
4410
330
440F
100
AcDbEntity
  8
0
100
AcDbBlockBegin
  2
*U1
 70
     1
 10
0.0
 20
0.0
 30
0.0
  3
*U1
  1

  0
TEXT
  5
3F06
330
440F
100
AcDbEntity
  8
标注
100
AcDbText
 10
458.0206312127088
 20
152.1491856005704
 30
0.0
 40
0.65
  1
10"
100
AcDbText
  0
ENDBLK
  5
3F08
330
440F
100
AcDbEntity
  8
0
100
AcDbBlockEnd
  0
BLOCK
  5
4416
330
4415
100
AcDbEntity
  8
0
100
AcDbBlockBegin
  2
*D2
 70
     1
 10
0.0
 20
0.0
 30
0.0
  3
*D2
  1

  0
LINE
  5
3815
330
4415
100
AcDbEntity
  8
标注
  6
ByBlock
100
AcDbLine
 10
452.3943545009451
 20
161.7240958431686
 30
0.0
 11
452.3943545009451
 21
152.1541856005704
 31
0.0
  0
LINE
  5
3816
330
4415
100
AcDbEntity
  8
标注
  6
ByBlock
100
AcDbLine
 10
438.5770944673701
 20
162.1174551844199
 30
0.0
 11
438.5770944673701
 21
152.1541856005704
 31
0.0
  0
LINE
  5
3817
330
4415
100
AcDbEntity
  8
标注
  6
ByBlock
100
AcDbLine
 10
451.7443545009451
 20
152.4741856005704
 30
0.0
 11
447.6357244841577
 21
152.4741856005704
 31
0.0
  0
LINE
  5
3818
330
4415
100
AcDbEntity
  8
标注
  6
ByBlock
100
AcDbLine
 10
439.2270944673703
 20
152.4741856005704
 30
0.0
 11
443.3357244841577
 21
152.4741856005704
 31
0.0
  0
SOLID
  5
3819
330
4415
100
AcDbEntity
  8
标注
100
AcDbTrace
 10
451.7443545009451
 20
152.5825189339037
 30
0.0
 11
451.7443545009451
 21
152.3658522672371
 31
0.0
 12
452.3943545009451
 22
152.4741856005704
 32
0.0
 13
452.3943545009451
 23
152.4741856005704
 33
0.0
  0
SOLID
  5
381A
330
4415
100
AcDbEntity
  8
标注
100
AcDbTrace
 10
439.2270944673703
 20
152.5825189339037
 30
0.0
 11
439.2270944673703
 21
152.3658522672371
 31
0.0
 12
438.5770944673701
 22
152.4741856005704
 32
0.0
 13
438.5770944673701
 23
152.4741856005704
 33
0.0
  0
INSERT
  5
381B
330
4415
100
AcDbEntity
  8
0
100
AcDbBlockReference
  2
*U3
 10
0.0
 20
0.0
 30
0.0
  0
POINT
  5
381C
330
4415
100
AcDbEntity
  8
DEFPOINTS
 62
     0
100
AcDbPoint
 10
452.3943545009451
 20
162.6040958431686
 30
0.0
  0
POINT
  5
381D
330
4415
100
AcDbEntity
  8
DEFPOINTS
 62
     0
100
AcDbPoint
 10
438.5770944673701
 20
162.9974551844199
 30
0.0
  0
POINT
  5
381E
330
4415
100
AcDbEntity
  8
DEFPOINTS
 62
     0
100
AcDbPoint
 10
438.5770944673701
 20
152.4741856005704
 30
0.0
  0
ENDBLK
  5
3403
330
4415
100
AcDbEntity
  8
0
100
AcDbBlockEnd
  0
BLOCK
  5
4418
330
4417
100
AcDbEntity
  8
0
100
AcDbBlockBegin
  2
*U3
 70
     1
 10
0.0
 20
0.0
 30
0.0
  3
*U3
  1

  0
TEXT
  5
3F59
330
4417
100
AcDbEntity
  8
标注
100
AcDbText
 10
443.5357244841577
 20
152.1491856005704
 30
0.0
 40
0.65
  1
13 3/4"
100
AcDbText
  0
ENDBLK
  5
3F5B
330
4417
100
AcDbEntity
  8
0
100
AcDbBlockEnd
  0
BLOCK
  5
441A
330
4419
100
AcDbEntity
  8
0
100
AcDbBlockBegin
  2
*D4
 70
     1
 10
0.0
 20
0.0
 30
0.0
  3
*D4
  1

  0
LINE
  5
34BD
330
4419
100
AcDbEntity
  8
标注
  6
ByBlock
100
AcDbLine
 10
459.4964645459021
 20
154.9659591214723
 30
0.0
 11
466.0764453192927
 21
154.9659591214723
 31
0.0
  0
LINE
  5
34BE
330
4419
100
AcDbEntity
  8
标注
  6
ByBlock
100
AcDbLine
 10
459.4964645463058
 20
168.9817071529096
 30
0.0
 11
466.0764453192927
 21
168.9817071529096
 31
0.0
  0
LINE
  5
34BF
330
4419
100
AcDbEntity
  8
标注
  6
ByBlock
100
AcDbLine
 10
465.7564453192925
 20
155.6159591214723
 30
0.0
 11
465.7564453192925
 21
161.1238331371909
 31
0.0
  0
LINE
  5
34C0
330
4419
100
AcDbEntity
  8
标注
  6
ByBlock
100
AcDbLine
 10
465.7564453192925
 20
168.3317071529097
 30
0.0
 11
465.7564453192925
 21
162.8238331371909
 31
0.0
  0
SOLID
  5
34C1
330
4419
100
AcDbEntity
  8
标注
100
AcDbTrace
 10
465.6481119859591
 20
155.6159591214723
 30
0.0
 11
465.864778652626
 21
155.6159591214723
 31
0.0
 12
465.7564453192925
 22
154.9659591214723
 32
0.0
 13
465.7564453192925
 23
154.9659591214723
 33
0.0
  0
SOLID
  5
34C2
330
4419
100
AcDbEntity
  8
标注
100
AcDbTrace
 10
465.6481119859591
 20
168.3317071529097
 30
0.0
 11
465.864778652626
 21
168.3317071529097
 31
0.0
 12
465.7564453192925
 22
168.9817071529096
 32
0.0
 13
465.7564453192925
 23
168.9817071529096
 33
0.0
  0
INSERT
  5
34C3
330
4419
100
AcDbEntity
  8
0
100
AcDbBlockReference
  2
*U5
 10
0.0
 20
0.0
 30
0.0
  0
POINT
  5
34C4
330
4419
100
AcDbEntity
  8
DEFPOINTS
 62
     0
100
AcDbPoint
 10
458.616464545902
 20
154.9659591214723
 30
0.0
  0
POINT
  5
34C5
330
4419
100
AcDbEntity
  8
DEFPOINTS
 62
     0
100
AcDbPoint
 10
458.6164645463058
 20
168.9817071529096
 30
0.0
  0
POINT
  5
34C6
330
4419
100
AcDbEntity
  8
DEFPOINTS
 62
     0
100
AcDbPoint
 10
465.7564453192925
 20
168.9817071529096
 30
0.0
  0
ENDBLK
  5
3410
330
4419
100
AcDbEntity
  8
0
100
AcDbBlockEnd
  0
BLOCK
  5
441C
330
441B
100
AcDbEntity
  8
0
100
AcDbBlockBegin
  2
*U5
 70
     1
 10
0.0
 20
0.0
 30
0.0
  3
*U5
  1

  0
TEXT
  5
3F12
330
441B
100
AcDbEntity
  8
标注
100
AcDbText
 10
466.0814453192925
 20
161.323833137191
 30
0.0
 40
0.65
  1
14"
 50
90.0
100
AcDbText
  0
ENDBLK
  5
3F14
330
441B
100
AcDbEntity
  8
0
100
AcDbBlockEnd
  0
BLOCK
  5
441E
330
441D
100
AcDbEntity
  8
0
100
AcDbBlockBegin
  2
*D6
 70
     1
 10
0.0
 20
0.0
 30
0.0
  3
*D6
  1

  0
LINE
  5
34C7
330
441D
100
AcDbEntity
  8
标注
100
AcDbLine
 10
465.4964645460185
 20
187.983917000921
 30
0.0
 11
465.581994229596
 21
187.983917000921
 31
0.0
  0
LINE
  5
34C8
330
441D
100
AcDbEntity
  8
标注
100
AcDbLine
 10
461.3742354899967
 20
180.9760429852023
 30
0.0
 11
465.581994229596
 21
180.9760429852023
 31
0.0
  0
LINE
  5
34C9
330
441D
100
AcDbEntity
  8
标注
100
AcDbLine
 10
465.261994229596
 20
187.333917000921
 30
0.0
 11
465.261994229596
 21
185.1133133263949
 31
0.0
  0
LINE
  5
34CA
330
441D
100
AcDbEntity
  8
标注
100
AcDbLine
 10
465.261994229596
 20
181.6260429852023
 30
0.0
 11
465.261994229596
 21
183.8466466597282
 31
0.0
  0
SOLID
  5
34CB
330
441D
100
AcDbEntity
  8
标注
100
AcDbTrace
 10
465.1536608962626
 20
187.333917000921
 30
0.0
 11
465.3703275629291
 21
187.333917000921
 31
0.0
 12
465.261994229596
 22
187.983917000921
 32
0.0
 13
465.261994229596
 23
187.983917000921
 33
0.0
  0
SOLID
  5
34CC
330
441D
100
AcDbEntity
  8
标注
100
AcDbTrace
 10
465.1536608962626
 20
181.6260429852023
 30
0.0
 11
465.3703275629291
 21
181.6260429852023
 31
0.0
 12
465.261994229596
 22
180.9760429852023
 32
0.0
 13
465.261994229596
 23
180.9760429852023
 33
0.0
  0
INSERT
  5
34CD
330
441D
100
AcDbEntity
  8
0
100
AcDbBlockReference
  2
*U7
 10
0.0
 20
0.0
 30
0.0
  0
POINT
  5
34CE
330
441D
100
AcDbEntity
  8
DEFPOINTS
 62
     0
100
AcDbPoint
 10
464.6164645460185
 20
187.983917000921
 30
0.0
  0
POINT
  5
34CF
330
441D
100
AcDbEntity
  8
DEFPOINTS
 62
     0
100
AcDbPoint
 10
460.4942354899967
 20
180.9760429852023
 30
0.0
  0
POINT
  5
34D0
330
441D
100
AcDbEntity
  8
DEFPOINTS
 62
     0
100
AcDbPoint
 10
465.261994229596
 20
180.9760429852023
 30
0.0
  0
ENDBLK
  5
341D
330
441D
100
AcDbEntity
  8
0
100
AcDbBlockEnd
  0
BLOCK
  5
4420
330
441F
100
AcDbEntity
  8
0
100
AcDbBlockBegin
  2
*U7
 70
     1
 10
0.0
 20
0.0
 30
0.0
  3
*U7
  1

  0
TEXT
  5
3F16
330
441F
100
AcDbEntity
  8
标注
100
AcDbText
 10
465.5869942295957
 20
184.0466466597283
 30
0.0
 40
0.65
  1
7"
 50
90.0
100
AcDbText
  0
ENDBLK
  5
3F18
330
441F
100
AcDbEntity
  8
0
100
AcDbBlockEnd
  0
BLOCK
  5
4422
330
4421
100
AcDbEntity
  8
0
100
AcDbBlockBegin
  2
*D8
 70
     1
 10
0.0
 20
0.0
 30
0.0
  3
*D8
  1

  0
LINE
  5
3801
330
4421
100
AcDbEntity
  8
标注
  6
ByBlock
100
AcDbLine
 10
437.4944173020221
 20
157.8103685702701
 30
0.0
 11
437.4944173020221
 21
150.712346408988
 31
0.0
  0
LINE
  5
3802
330
4421
100
AcDbEntity
  8
标注
  6
ByBlock
100
AcDbLine
 10
464.6597716326312
 20
157.8103685702701
 30
0.0
 11
464.6597716326312
 21
150.712346408988
 31
0.0
  0
LINE
  5
3803
330
4421
100
AcDbEntity
  8
标注
  6
ByBlock
100
AcDbLine
 10
438.144417302022
 20
151.032346408988
 30
0.0
 11
448.9270944673266
 21
151.032346408988
 31
0.0
  0
LINE
  5
3804
330
4421
100
AcDbEntity
  8
标注
  6
ByBlock
100
AcDbLine
 10
464.0097716326311
 20
151.032346408988
 30
0.0
 11
453.2270944673268
 21
151.032346408988
 31
0.0
  0
SOLID
  5
3805
330
4421
100
AcDbEntity
  8
标注
100
AcDbTrace
 10
438.144417302022
 20
151.1406797423213
 30
0.0
 11
438.144417302022
 21
150.9240130756547
 31
0.0
 12
437.4944173020221
 22
151.032346408988
 32
0.0
 13
437.4944173020221
 23
151.032346408988
 33
0.0
  0
SOLID
  5
3806
330
4421
100
AcDbEntity
  8
标注
100
AcDbTrace
 10
464.0097716326311
 20
151.1406797423213
 30
0.0
 11
464.0097716326311
 21
150.9240130756547
 31
0.0
 12
464.6597716326312
 22
151.032346408988
 32
0.0
 13
464.6597716326312
 23
151.032346408988
 33
0.0
  0
INSERT
  5
3807
330
4421
100
AcDbEntity
  8
0
100
AcDbBlockReference
  2
*U9
 10
0.0
 20
0.0
 30
0.0
  0
POINT
  5
3808
330
4421
100
AcDbEntity
  8
DEFPOINTS
 62
     0
100
AcDbPoint
 10
437.4944173020221
 20
158.6903685702701
 30
0.0
  0
POINT
  5
3809
330
4421
100
AcDbEntity
  8
DEFPOINTS
 62
     0
100
AcDbPoint
 10
464.6597716326312
 20
158.6903685702701
 30
0.0
  0
POINT
  5
380A
330
4421
100
AcDbEntity
  8
DEFPOINTS
 62
     0
100
AcDbPoint
 10
464.6597716326312
 20
151.032346408988
 30
0.0
  0
ENDBLK
  5
342A
330
4421
100
AcDbEntity
  8
0
100
AcDbBlockEnd
  0
BLOCK
  5
4424
330
4423
100
AcDbEntity
  8
0
100
AcDbBlockBegin
  2
*U9
 70
     1
 10
0.0
 20
0.0
 30
0.0
  3
*U9
  1

  0
TEXT
  5
3F51
330
4423
100
AcDbEntity
  8
标注
100
AcDbText
 10
449.1270944673265
 20
150.707346408988
 30
0.0
 40
0.65
  1
27 1/8"
100
AcDbText
  0
ENDBLK
  5
3F53
330
4423
100
AcDbEntity
  8
0
100
AcDbBlockEnd
  0
BLOCK
  5
4426
330
4425
100
AcDbEntity
  8
0
100
AcDbBlockBegin
  2
*D10
 70
     1
 10
0.0
 20
0.0
 30
0.0
  3
*D10
  1

  0
LINE
  5
3829
330
4425
100
AcDbEntity
  8
标注
  6
ByBlock
100
AcDbLine
 10
460.7720550972167
 20
153.7848567592729
 30
0.0
 11
467.4400858694927
 21
153.7848567592729
 31
0.0
  0
LINE
  5
382A
330
4425
100
AcDbEntity
  8
标注
  6
ByBlock
100
AcDbLine
 10
460.6342598216303
 20
170.0446992788921
 30
0.0
 11
467.4400858694927
 21
170.0446992788921
 31
0.0
  0
LINE
  5
382B
330
4425
100
AcDbEntity
  8
标注
  6
ByBlock
100
AcDbLine
 10
467.1200858694929
 20
154.4348567592729
 30
0.0
 11
467.1200858694929
 21
159.8731113524157
 31
0.0
  0
LINE
  5
382C
330
4425
100
AcDbEntity
  8
标注
  6
ByBlock
100
AcDbLine
 10
467.1200858694929
 20
169.3946992788921
 30
0.0
 11
467.1200858694929
 21
163.9564446857491
 31
0.0
  0
SOLID
  5
382D
330
4425
100
AcDbEntity
  8
标注
100
AcDbTrace
 10
467.0117525361596
 20
154.4348567592729
 30
0.0
 11
467.2284192028262
 21
154.4348567592729
 31
0.0
 12
467.1200858694929
 22
153.7848567592729
 32
0.0
 13
467.1200858694929
 23
153.7848567592729
 33
0.0
  0
SOLID
  5
382E
330
4425
100
AcDbEntity
  8
标注
100
AcDbTrace
 10
467.0117525361596
 20
169.3946992788921
 30
0.0
 11
467.2284192028262
 21
169.3946992788921
 31
0.0
 12
467.1200858694929
 22
170.0446992788921
 32
0.0
 13
467.1200858694929
 23
170.0446992788921
 33
0.0
  0
INSERT
  5
382F
330
4425
100
AcDbEntity
  8
0
100
AcDbBlockReference
  2
*U11
 10
0.0
 20
0.0
 30
0.0
  0
POINT
  5
3830
330
4425
100
AcDbEntity
  8
DEFPOINTS
 62
     0
100
AcDbPoint
 10
459.892055097217
 20
153.7848567592729
 30
0.0
  0
POINT
  5
3831
330
4425
100
AcDbEntity
  8
DEFPOINTS
 62
     0
100
AcDbPoint
 10
459.7542598216303
 20
170.0446992788921
 30
0.0
  0
POINT
  5
3832
330
4425
100
AcDbEntity
  8
DEFPOINTS
 62
     0
100
AcDbPoint
 10
467.1200858694929
 20
170.0446992788921
 30
0.0
  0
ENDBLK
  5
3437
330
4425
100
AcDbEntity
  8
0
100
AcDbBlockEnd
  0
BLOCK
  5
4428
330
4427
100
AcDbEntity
  8
0
100
AcDbBlockBegin
  2
*U11
 70
     1
 10
0.0
 20
0.0
 30
0.0
  3
*U11
  1

  0
TEXT
  5
3F5D
330
4427
100
AcDbEntity
  8
标注
100
AcDbText
 10
467.4450858694927
 20
160.0731113524158
 30
0.0
 40
0.65
  1
16 1/4"
 50
90.0
100
AcDbText
  0
ENDBLK
  5
3F5F
330
4427
100
AcDbEntity
  8
0
100
AcDbBlockEnd
  0
BLOCK
  5
4442
330
4441
100
AcDbEntity
  8
0
100
AcDbBlockBegin
  2
*D12
 70
     1
 10
0.0
 20
0.0
 30
0.0
  3
*D12
  1

  0
LINE
  5
34B3
330
4441
100
AcDbEntity
  8
标注
  6
ByBlock
100
AcDbLine
 10
444.6065432862452
 20
154.9659591214723
 30
0.0
 11
435.7018696967847
 21
154.9659591214723
 31
0.0
  0
LINE
  5
34B4
330
4441
100
AcDbEntity
  8
标注
  6
ByBlock
100
AcDbLine
 10
444.6065432862452
 20
171.028951247382
 30
0.0
 11
435.7018696967847
 21
171.028951247382
 31
0.0
  0
LINE
  5
34B5
330
4441
100
AcDbEntity
  8
标注
  6
ByBlock
100
AcDbLine
 10
436.0218696967849
 20
155.6159591214723
 30
0.0
 11
436.0218696967849
 21
160.9557885177677
 31
0.0
  0
LINE
  5
34B6
330
4441
100
AcDbEntity
  8
标注
  6
ByBlock
100
AcDbLine
 10
436.0218696967849
 20
170.378951247382
 30
0.0
 11
436.0218696967849
 21
165.039121851101
 31
0.0
  0
SOLID
  5
34B7
330
4441
100
AcDbEntity
  8
标注
100
AcDbTrace
 10
435.9135363634516
 20
155.6159591214723
 30
0.0
 11
436.1302030301184
 21
155.6159591214723
 31
0.0
 12
436.0218696967849
 22
154.9659591214723
 32
0.0
 13
436.0218696967849
 23
154.9659591214723
 33
0.0
  0
SOLID
  5
34B8
330
4441
100
AcDbEntity
  8
标注
100
AcDbTrace
 10
435.9135363634516
 20
170.378951247382
 30
0.0
 11
436.1302030301184
 21
170.378951247382
 31
0.0
 12
436.0218696967849
 22
171.028951247382
 32
0.0
 13
436.0218696967849
 23
171.028951247382
 33
0.0
  0
INSERT
  5
34B9
330
4441
100
AcDbEntity
  8
0
100
AcDbBlockReference
  2
*U13
 10
0.0
 20
0.0
 30
0.0
  0
POINT
  5
34BA
330
4441
100
AcDbEntity
  8
DEFPOINTS
 62
     0
100
AcDbPoint
 10
445.4865432862452
 20
154.9659591214723
 30
0.0
  0
POINT
  5
34BB
330
4441
100
AcDbEntity
  8
DEFPOINTS
 62
     0
100
AcDbPoint
 10
445.4865432862452
 20
171.028951247382
 30
0.0
  0
POINT
  5
34BC
330
4441
100
AcDbEntity
  8
DEFPOINTS
 62
     0
100
AcDbPoint
 10
436.0218696967849
 20
171.028951247382
 30
0.0
  0
ENDBLK
  5
34B2
330
4441
100
AcDbEntity
  8
0
100
AcDbBlockEnd
  0
BLOCK
  5
4444
330
4443
100
AcDbEntity
  8
0
100
AcDbBlockBegin
  2
*U13
 70
     1
 10
0.0
 20
0.0
 30
0.0
  3
*U13
  1

  0
TEXT
  5
3F0E
330
4443
100
AcDbEntity
  8
标注
100
AcDbText
 10
436.3468696967848
 20
161.1557885177677
 30
0.0
 40
0.65
  1
16 1/8"
 50
90.0
100
AcDbText
  0
ENDBLK
  5
3F10
330
4443
100
AcDbEntity
  8
0
100
AcDbBlockEnd
  0
BLOCK
  5
4446
330
4445
100
AcDbEntity
  8
0
100
AcDbBlockBegin
  2
*D14
 70
     1
 10
0.0
 20
0.0
 30
0.0
  3
*D14
  1

  0
LINE
  5
3570
330
4445
100
AcDbEntity
  8
标注
100
AcDbLine
 10
442.2812503129256
 20
179.9933406007001
 30
0.0
 11
436.0088189754862
 21
179.9933406007001
 31
0.0
  0
LINE
  5
3571
330
4445
100
AcDbEntity
  8
标注
100
AcDbLine
 10
436.657724385966
 20
187.9839170010344
 30
0.0
 11
436.0088189754862
 21
187.9839170010344
 31
0.0
  0
LINE
  5
3572
330
4445
100
AcDbEntity
  8
标注
100
AcDbLine
 10
436.3288189754864
 20
180.6433406007001
 30
0.0
 11
436.3288189754864
 21
183.3552954675338
 31
0.0
  0
LINE
  5
3573
330
4445
100
AcDbEntity
  8
标注
100
AcDbLine
 10
436.3288189754864
 20
187.3339170010343
 30
0.0
 11
436.3288189754864
 21
184.6219621342005
 31
0.0
  0
SOLID
  5
3574
330
4445
100
AcDbEntity
  8
标注
100
AcDbTrace
 10
436.2204856421526
 20
180.6433406007001
 30
0.0
 11
436.4371523088196
 21
180.6433406007001
 31
0.0
 12
436.3288189754864
 22
179.9933406007001
 32
0.0
 13
436.3288189754864
 23
179.9933406007001
 33
0.0
  0
SOLID
  5
3575
330
4445
100
AcDbEntity
  8
标注
100
AcDbTrace
 10
436.2204856421526
 20
187.3339170010343
 30
0.0
 11
436.4371523088196
 21
187.3339170010343
 31
0.0
 12
436.3288189754864
 22
187.9839170010344
 32
0.0
 13
436.3288189754864
 23
187.9839170010344
 33
0.0
  0
INSERT
  5
3576
330
4445
100
AcDbEntity
  8
0
100
AcDbBlockReference
  2
*U15
 10
0.0
 20
0.0
 30
0.0
  0
POINT
  5
3577
330
4445
100
AcDbEntity
  8
DEFPOINTS
 62
     0
100
AcDbPoint
 10
443.1612503129257
 20
179.9933406007001
 30
0.0
  0
POINT
  5
3578
330
4445
100
AcDbEntity
  8
DEFPOINTS
 62
     0
100
AcDbPoint
 10
437.5377243859662
 20
187.9839170010344
 30
0.0
  0
POINT
  5
3579
330
4445
100
AcDbEntity
  8
DEFPOINTS
 62
     0
100
AcDbPoint
 10
436.3288189754864
 20
187.9839170010344
 30
0.0
  0
ENDBLK
  5
34D3
330
4445
100
AcDbEntity
  8
0
100
AcDbBlockEnd
  0
BLOCK
  5
4448
330
4447
100
AcDbEntity
  8
0
100
AcDbBlockBegin
  2
*U15
 70
     1
 10
0.0
 20
0.0
 30
0.0
  3
*U15
  1

  0
TEXT
  5
3F36
330
4447
100
AcDbEntity
  8
标注
100
AcDbText
 10
436.6538189754861
 20
183.5552954675339
 30
0.0
 40
0.65
  1
8"
 50
90.0
100
AcDbText
  0
ENDBLK
  5
3F38
330
4447
100
AcDbEntity
  8
0
100
AcDbBlockEnd
  0
BLOCK
  5
4452
330
4451
100
AcDbEntity
  8
0
100
AcDbBlockBegin
  2
*D16
 70
     1
 10
0.0
 20
0.0
 30
0.0
  3
*D16
  1

  0
LINE
  5
380B
330
4451
100
AcDbEntity
  8
标注
  6
ByBlock
100
AcDbLine
 10
441.5396141523959
 20
153.7848567592661
 30
0.0
 11
434.6236625535586
 21
153.7848567592661
 31
0.0
  0
LINE
  5
380C
330
4451
100
AcDbEntity
  8
标注
  6
ByBlock
100
AcDbLine
 10
441.5396141523959
 20
172.2100536095747
 30
0.0
 11
434.6236625535586
 21
172.2100536095747
 31
0.0
  0
LINE
  5
380D
330
4451
100
AcDbEntity
  8
标注
  6
ByBlock
100
AcDbLine
 10
434.9436625535591
 20
154.4348567592661
 30
0.0
 11
434.9436625535591
 21
160.955788517761
 31
0.0
  0
LINE
  5
380E
330
4451
100
AcDbEntity
  8
标注
  6
ByBlock
100
AcDbLine
 10
434.9436625535591
 20
171.5600536095747
 30
0.0
 11
434.9436625535591
 21
165.0391218510943
 31
0.0
  0
SOLID
  5
380F
330
4451
100
AcDbEntity
  8
标注
100
AcDbTrace
 10
434.8353292202256
 20
154.4348567592661
 30
0.0
 11
435.0519958868924
 21
154.4348567592661
 31
0.0
 12
434.9436625535591
 22
153.7848567592661
 32
0.0
 13
434.9436625535591
 23
153.7848567592661
 33
0.0
  0
SOLID
  5
3810
330
4451
100
AcDbEntity
  8
标注
100
AcDbTrace
 10
434.8353292202256
 20
171.5600536095747
 30
0.0
 11
435.0519958868924
 21
171.5600536095747
 31
0.0
 12
434.9436625535591
 22
172.2100536095747
 32
0.0
 13
434.9436625535591
 23
172.2100536095747
 33
0.0
  0
INSERT
  5
3811
330
4451
100
AcDbEntity
  8
0
100
AcDbBlockReference
  2
*U17
 10
0.0
 20
0.0
 30
0.0
  0
POINT
  5
3812
330
4451
100
AcDbEntity
  8
DEFPOINTS
 62
     0
100
AcDbPoint
 10
442.419614152396
 20
153.7848567592661
 30
0.0
  0
POINT
  5
3813
330
4451
100
AcDbEntity
  8
DEFPOINTS
 62
     0
100
AcDbPoint
 10
442.419614152396
 20
172.2100536095747
 30
0.0
  0
POINT
  5
3814
330
4451
100
AcDbEntity
  8
DEFPOINTS
 62
     0
100
AcDbPoint
 10
434.9436625535591
 20
172.2100536095747
 30
0.0
  0
ENDBLK
  5
3504
330
4451
100
AcDbEntity
  8
0
100
AcDbBlockEnd
  0
BLOCK
  5
4454
330
4453
100
AcDbEntity
  8
0
100
AcDbBlockBegin
  2
*U17
 70
     1
 10
0.0
 20
0.0
 30
0.0
  3
*U17
  1

  0
TEXT
  5
3F55
330
4453
100
AcDbEntity
  8
标注
100
AcDbText
 10
435.2686625535588
 20
161.155788517761
 30
0.0
 40
0.65
  1
18 1/2"
 50
90.0
100
AcDbText
  0
ENDBLK
  5
3F57
330
4453
100
AcDbEntity
  8
0
100
AcDbBlockEnd
  0
BLOCK
  5
4460
330
445F
100
AcDbEntity
  8
0
100
AcDbBlockBegin
  2
*U18
 70
     1
 10
0.0
 20
0.0
 30
0.0
  3
*U18
  1

  0
TEXT
  5
3F49
330
445F
100
AcDbEntity
  8
标注
100
AcDbText
 10
448.6543370278099
 20
176.5639646558375
 30
0.0
 40
0.7874015748031497
  1
FRONT VIEW
100
AcDbText
  0
ENDBLK
  5
3F4B
330
445F
100
AcDbEntity
  8
0
100
AcDbBlockEnd
  0
BLOCK
  5
4462
330
4461
100
AcDbEntity
  8
0
100
AcDbBlockBegin
  2
*U19
 70
     1
 10
0.0
 20
0.0
 30
0.0
  3
*U19
  1

  0
TEXT
  5
3F4D
330
4461
100
AcDbEntity
  8
标注
100
AcDbText
 10
446.9249478288684
 20
147.5695321124926
 30
0.0
 40
0.7874015748031497
  1
OVERHEAD VIEW
100
AcDbText
  0
ENDBLK
  5
3F4F
330
4461
100
AcDbEntity
  8
0
100
AcDbBlockEnd
  0
BLOCK
  5
4464
330
4463
100
AcDbEntity
  8
0
100
AcDbBlockBegin
  2
*U20
 70
     1
 10
0.0
 20
0.0
 30
0.0
  3
*U20
  1

  0
TEXT
  5
3F61
330
4463
100
AcDbEntity
  8
标注
100
AcDbText
 10
448.5331378829473
 20
102.4289209665645
 30
0.0
 40
0.7874015748031497
  1
1/4" 
100
AcDbText
  0
TEXT
  5
3F62
330
4463
100
AcDbEntity
  8
标注
100
AcDbText
 10
451.9452113737608
 20
102.4289209665645
 30
0.0
 40
0.7874015748031497
  1
OVERHANG CUTOUT
100
AcDbText
  0
ENDBLK
  5
3F64
330
4463
100
AcDbEntity
  8
0
100
AcDbBlockEnd
  0
BLOCK
  5
4466
330
4465
100
AcDbEntity
  8
0
100
AcDbBlockBegin
  2
*U21
 70
     1
 10
0.0
 20
0.0
 30
0.0
  3
*U21
  1

  0
TEXT
  5
3F66
330
4465
100
AcDbEntity
  8
标注
100
AcDbText
 10
448.4429035960663
 20
104.3974249035725
 30
0.0
 40
0.7874015748031497
  1
FLUSH CUTOUT
100
AcDbText
  0
ENDBLK
  5
3F68
330
4465
100
AcDbEntity
  8
0
100
AcDbBlockEnd
  0
BLOCK
  5
4468
330
4467
100
AcDbEntity
  8
0
100
AcDbBlockBegin
  2
*U22
 70
     1
 10
0.0
 20
0.0
 30
0.0
  3
*U22
  1

  0
TEXT
  5
3F6A
330
4467
100
AcDbEntity
  8
标注
100
AcDbText
 10
448.5331378829473
 20
106.3659288405804
 30
0.0
 40
0.7874015748031497
  1
1/4" 
100
AcDbText
  0
TEXT
  5
3F6B
330
4467
100
AcDbEntity
  8
标注
100
AcDbText
 10
451.9452113737608
 20
106.3659288405804
 30
0.0
 40
0.7874015748031497
  1
REVEAL CUTOUT
100
AcDbText
  0
ENDBLK
  5
3F6D
330
4467
100
AcDbEntity
  8
0
100
AcDbBlockEnd
  0
BLOCK
  5
446A
330
4469
100
AcDbEntity
  8
0
100
AcDbBlockBegin
  2
*U23
 70
     1
 10
0.0
 20
0.0
 30
0.0
  3
*U23
  1

  0
TEXT
  5
3F7E
330
4469
100
AcDbEntity
  8
标注
100
AcDbText
 10
448.5331378829473
 20
72.09550313691884
 30
0.0
 40
0.7874015748031497
  1
1/4" 
100
AcDbText
  0
TEXT
  5
3F7F
330
4469
100
AcDbEntity
  8
标注
100
AcDbText
 10
451.9452113737608
 20
72.09550313691884
 30
0.0
 40
0.7874015748031497
  1
REVEAL CUTOUT
100
AcDbText
  0
ENDBLK
  5
3F81
330
4469
100
AcDbEntity
  8
0
100
AcDbBlockEnd
  0
BLOCK
  5
446C
330
446B
100
AcDbEntity
  8
0
100
AcDbBlockBegin
  2
*U24
 70
     1
 10
0.0
 20
0.0
 30
0.0
  3
*U24
  1

  0
TEXT
  5
3F93
330
446B
100
AcDbEntity
  8
标注
100
AcDbText
 10
449.6014102680128
 20
38.98337568230097
 30
0.0
 40
0.7874015748031497
  1
FLUSH CUTOUT
100
AcDbText
  0
ENDBLK
  5
3F95
330
446B
100
AcDbEntity
  8
0
100
AcDbBlockEnd
  0
BLOCK
  5
446E
330
446D
100
AcDbEntity
  8
0
100
AcDbBlockBegin
  2
*U25
 70
     1
 10
0.0
 20
0.0
 30
0.0
  3
*U25
  1

  0
TEXT
  5
3FA6
330
446D
100
AcDbEntity
  8
标注
100
AcDbText
 10
448.5331378829473
 20
3.868212891439358
 30
0.0
 40
0.7874015748031497
  1
1/4" 
100
AcDbText
  0
TEXT
  5
3FA7
330
446D
100
AcDbEntity
  8
标注
100
AcDbText
 10
451.9452113737608
 20
3.868212891439358
 30
0.0
 40
0.7874015748031497
  1
OVERHANG CUTOUT
100
AcDbText
  0
ENDBLK
  5
3FA9
330
446D
100
AcDbEntity
  8
0
100
AcDbBlockEnd
  0
BLOCK
  5
4699
330
4698
100
AcDbEntity
  8
0
100
AcDbBlockBegin
  2
_Open30
 70
     0
 10
0.0
 20
0.0
 30
0.0
  3
_Open30
  1

  0
LINE
  5
469A
330
4698
100
AcDbEntity
  8
0
  6
ByBlock
 62
     0
370
    -2
100
AcDbLine
 10
-1.0
 20
0.26794919
 30
0.0
 11
0.0
 21
0.0
 31
0.0
  0
LINE
  5
469B
330
4698
100
AcDbEntity
  8
0
  6
ByBlock
 62
     0
370
    -2
100
AcDbLine
 10
0.0
 20
0.0
 30
0.0
 11
-1.0
 21
-0.26794919
 31
0.0
  0
LINE
  5
469C
330
4698
100
AcDbEntity
  8
0
  6
ByBlock
 62
     0
370
    -2
100
AcDbLine
 10
0.0
 20
0.0
 30
0.0
 11
-1.0
 21
0.0
 31
0.0
  0
ENDBLK
  5
469D
330
4698
100
AcDbEntity
  8
0
100
AcDbBlockEnd
  0
BLOCK
  5
4848
330
4847
100
AcDbEntity
  8
0
100
AcDbBlockBegin
  2
*D27
 70
     1
 10
0.0
 20
0.0
 30
0.0
  3
*D27
  1

  0
LINE
  5
4AB5
330
4847
100
AcDbEntity
  8
0
  6
Continuous
 62
     3
370
    13
100
AcDbLine
 10
515.1620209686101
 20
161.7751243604954
 30
0.0
 11
515.1620209686101
 21
151.2428654346278
 31
0.0
  0
LINE
  5
4AB6
330
4847
100
AcDbEntity
  8
0
  6
Continuous
 62
     3
370
    13
100
AcDbLine
 10
536.6186709686067
 20
161.7751243604954
 30
0.0
 11
536.6186709686067
 21
151.2428654346278
 31
0.0
  0
LINE
  5
4AB7
330
4847
100
AcDbEntity
  8
0
  6
Continuous
 62
     3
370
    13
100
AcDbLine
 10
515.8120209686101
 20
151.5628654346278
 30
0.0
 11
524.1339570797196
 21
151.5628654346278
 31
0.0
  0
LINE
  5
4AB8
330
4847
100
AcDbEntity
  8
0
  6
Continuous
 62
     3
370
    13
100
AcDbLine
 10
535.9686709686067
 20
151.5628654346278
 30
0.0
 11
527.6467348574973
 21
151.5628654346278
 31
0.0
  0
SOLID
  5
4AB9
330
4847
100
AcDbEntity
  8
0
 62
     3
100
AcDbTrace
 10
515.8120209686101
 20
151.6711987679611
 30
0.0
 11
515.8120209686101
 21
151.4545321012945
 31
0.0
 12
515.1620209686101
 22
151.5628654346278
 32
0.0
 13
515.1620209686101
 23
151.5628654346278
 33
0.0
  0
SOLID
  5
4ABA
330
4847
100
AcDbEntity
  8
0
 62
     3
100
AcDbTrace
 10
535.9686709686067
 20
151.6711987679611
 30
0.0
 11
535.9686709686067
 21
151.4545321012945
 31
0.0
 12
536.6186709686067
 22
151.5628654346278
 32
0.0
 13
536.6186709686067
 23
151.5628654346278
 33
0.0
  0
MTEXT
  5
4ABB
330
4847
100
AcDbEntity
  8
0
 62
     3
100
AcDbMText
 10
525.8903459686083
 20
151.5628654346278
 30
0.0
 40
0.65
 41
0.0
 71
     5
 72
     1
  1
\A1;21 1/2"
 73
     1
 44
1.0
1001
ACAD
1000
MTEXTBEGIN
1070
    73
1070
     1
1070
    44
1040
1.0
1070
    74
1070
     0
1000
MTEXTEND
  0
POINT
  5
4ABC
330
4847
100
AcDbEntity
  8
DEFPOINTS
 62
     0
100
AcDbPoint
 10
515.1620209686101
 20
162.6551243604954
 30
0.0
  0
POINT
  5
4ABD
330
4847
100
AcDbEntity
  8
DEFPOINTS
 62
     0
100
AcDbPoint
 10
536.6186709686067
 20
162.6551243604954
 30
0.0
  0
POINT
  5
4ABE
330
4847
100
AcDbEntity
  8
DEFPOINTS
 62
     0
100
AcDbPoint
 10
536.6186709686067
 20
151.5628654346278
 30
0.0
  0
ENDBLK
  5
4849
330
4847
100
AcDbEntity
  8
0
100
AcDbBlockEnd
  0
BLOCK
  5
4856
330
4855
100
AcDbEntity
  8
0
100
AcDbBlockBegin
  2
*D28
 70
     1
 10
0.0
 20
0.0
 30
0.0
  3
*D28
  1

  0
LINE
  5
4ABF
330
4855
100
AcDbEntity
  8
0
  6
Continuous
 62
     3
370
    13
100
AcDbLine
 10
514.1974559686101
 20
161.7751243604954
 30
0.0
 11
514.1974559686101
 21
149.5375210957591
 31
0.0
  0
LINE
  5
4AC0
330
4855
100
AcDbEntity
  8
0
  6
Continuous
 62
     3
370
    13
100
AcDbLine
 10
537.5832359686063
 20
161.7751243604954
 30
0.0
 11
537.5832359686063
 21
149.5375210957591
 31
0.0
  0
LINE
  5
4AC1
330
4855
100
AcDbEntity
  8
0
  6
Continuous
 62
     3
370
    13
100
AcDbLine
 10
514.8474559686101
 20
149.8575210957591
 30
0.0
 11
524.1339570797191
 21
149.8575210957591
 31
0.0
  0
LINE
  5
4AC2
330
4855
100
AcDbEntity
  8
0
  6
Continuous
 62
     3
370
    13
100
AcDbLine
 10
536.9332359686064
 20
149.8575210957591
 30
0.0
 11
527.646734857497
 21
149.8575210957591
 31
0.0
  0
SOLID
  5
4AC3
330
4855
100
AcDbEntity
  8
0
 62
     3
100
AcDbTrace
 10
514.8474559686101
 20
149.9658544290924
 30
0.0
 11
514.8474559686101
 21
149.7491877624258
 31
0.0
 12
514.1974559686101
 22
149.8575210957591
 32
0.0
 13
514.1974559686101
 23
149.8575210957591
 33
0.0
  0
SOLID
  5
4AC4
330
4855
100
AcDbEntity
  8
0
 62
     3
100
AcDbTrace
 10
536.9332359686064
 20
149.9658544290924
 30
0.0
 11
536.9332359686064
 21
149.7491877624258
 31
0.0
 12
537.5832359686063
 22
149.8575210957591
 32
0.0
 13
537.5832359686063
 23
149.8575210957591
 33
0.0
  0
MTEXT
  5
4AC5
330
4855
100
AcDbEntity
  8
0
 62
     3
100
AcDbMText
 10
525.8903459686081
 20
149.8575210957591
 30
0.0
 40
0.65
 41
0.0
 71
     5
 72
     1
  1
\A1;23 3/8"
 73
     1
 44
1.0
1001
ACAD
1000
MTEXTBEGIN
1070
    73
1070
     1
1070
    44
1040
1.0
1070
    74
1070
     0
1000
MTEXTEND
  0
POINT
  5
4AC6
330
4855
100
AcDbEntity
  8
DEFPOINTS
 62
     0
100
AcDbPoint
 10
514.1974559686101
 20
162.6551243604954
 30
0.0
  0
POINT
  5
4AC7
330
4855
100
AcDbEntity
  8
DEFPOINTS
 62
     0
100
AcDbPoint
 10
537.5832359686063
 20
162.6551243604954
 30
0.0
  0
POINT
  5
4AC8
330
4855
100
AcDbEntity
  8
DEFPOINTS
 62
     0
100
AcDbPoint
 10
537.5832359686063
 20
149.8575210957591
 30
0.0
  0
ENDBLK
  5
4857
330
4855
100
AcDbEntity
  8
0
100
AcDbBlockEnd
  0
BLOCK
  5
4864
330
4863
100
AcDbEntity
  8
0
100
AcDbBlockBegin
  2
*D29
 70
     1
 10
0.0
 20
0.0
 30
0.0
  3
*D29
  1

  0
LINE
  5
4AC9
330
4863
100
AcDbEntity
  8
0
  6
Continuous
 62
     3
370
    13
100
AcDbLine
 10
526.7703459691722
 20
154.6826993605061
 30
0.0
 11
539.7498456205612
 21
154.6826993605061
 31
0.0
  0
LINE
  5
4ACA
330
4863
100
AcDbEntity
  8
0
  6
Continuous
 62
     3
370
    13
100
AcDbLine
 10
526.770345968612
 20
170.6275493604992
 30
0.0
 11
539.7498456205612
 21
170.6275493604992
 31
0.0
  0
LINE
  5
4ACB
330
4863
100
AcDbEntity
  8
0
  6
Continuous
 62
     3
370
    13
100
AcDbLine
 10
539.4298456205611
 20
155.3326993605061
 30
0.0
 11
539.4298456205611
 21
161.8520688049471
 31
0.0
  0
LINE
  5
4ACC
330
4863
100
AcDbEntity
  8
0
  6
Continuous
 62
     3
370
    13
100
AcDbLine
 10
539.4298456205611
 20
169.9775493604992
 30
0.0
 11
539.4298456205611
 21
163.4581799160582
 31
0.0
  0
SOLID
  5
4ACD
330
4863
100
AcDbEntity
  8
0
 62
     3
100
AcDbTrace
 10
539.3215122872277
 20
155.3326993605061
 30
0.0
 11
539.5381789538945
 21
155.3326993605061
 31
0.0
 12
539.4298456205611
 22
154.6826993605061
 32
0.0
 13
539.4298456205611
 23
154.6826993605061
 33
0.0
  0
SOLID
  5
4ACE
330
4863
100
AcDbEntity
  8
0
 62
     3
100
AcDbTrace
 10
539.3215122872277
 20
169.9775493604992
 30
0.0
 11
539.5381789538945
 21
169.9775493604992
 31
0.0
 12
539.4298456205611
 22
170.6275493604992
 32
0.0
 13
539.4298456205611
 23
170.6275493604992
 33
0.0
  0
MTEXT
  5
4ACF
330
4863
100
AcDbEntity
  8
0
 62
     3
100
AcDbMText
 10
539.4298456205611
 20
162.6551243605026
 30
0.0
 40
0.65
 41
0.0
 71
     5
 72
     1
  1
\A1;16"
 11
0.0000000000000001
 21
1.0
 31
0.0
 73
     1
 44
1.0
1001
ACAD
1000
MTEXTBEGIN
1070
    73
1070
     1
1070
    44
1040
1.0
1070
    74
1070
     0
1000
MTEXTEND
  0
POINT
  5
4AD0
330
4863
100
AcDbEntity
  8
DEFPOINTS
 62
     0
100
AcDbPoint
 10
525.8903459691722
 20
154.6826993605061
 30
0.0
  0
POINT
  5
4AD1
330
4863
100
AcDbEntity
  8
DEFPOINTS
 62
     0
100
AcDbPoint
 10
525.890345968612
 20
170.6275493604992
 30
0.0
  0
POINT
  5
4AD2
330
4863
100
AcDbEntity
  8
DEFPOINTS
 62
     0
100
AcDbPoint
 10
539.4298456205611
 20
170.6275493604992
 30
0.0
  0
ENDBLK
  5
4865
330
4863
100
AcDbEntity
  8
0
100
AcDbBlockEnd
  0
BLOCK
  5
4872
330
4871
100
AcDbEntity
  8
0
100
AcDbBlockBegin
  2
*D30
 70
     1
 10
0.0
 20
0.0
 30
0.0
  3
*D30
  1

  0
LINE
  5
4AD3
330
4871
100
AcDbEntity
  8
0
  6
Continuous
 62
     3
370
    13
100
AcDbLine
 10
526.7703459691722
 20
153.7575043605061
 30
0.0
 11
541.2693633406436
 21
153.7575043605061
 31
0.0
  0
LINE
  5
4AD4
330
4871
100
AcDbEntity
  8
0
  6
Continuous
 62
     3
370
    13
100
AcDbLine
 10
526.770345968612
 20
171.5527443604992
 30
0.0
 11
541.2693633406436
 21
171.5527443604992
 31
0.0
  0
LINE
  5
4AD5
330
4871
100
AcDbEntity
  8
0
  6
Continuous
 62
     3
370
    13
100
AcDbLine
 10
540.9493633406436
 20
154.4075043605061
 30
0.0
 11
540.9493633406436
 21
160.9276243605026
 31
0.0
  0
LINE
  5
4AD6
330
4871
100
AcDbEntity
  8
0
  6
Continuous
 62
     3
370
    13
100
AcDbLine
 10
540.9493633406436
 20
170.9027443604992
 30
0.0
 11
540.9493633406436
 21
164.3826243605025
 31
0.0
  0
SOLID
  5
4AD7
330
4871
100
AcDbEntity
  8
0
 62
     3
100
AcDbTrace
 10
540.8410300073102
 20
154.4075043605061
 30
0.0
 11
541.0576966739768
 21
154.4075043605061
 31
0.0
 12
540.9493633406436
 22
153.7575043605061
 32
0.0
 13
540.9493633406436
 23
153.7575043605061
 33
0.0
  0
SOLID
  5
4AD8
330
4871
100
AcDbEntity
  8
0
 62
     3
100
AcDbTrace
 10
540.8410300073102
 20
170.9027443604992
 30
0.0
 11
541.0576966739768
 21
170.9027443604992
 31
0.0
 12
540.9493633406436
 22
171.5527443604992
 32
0.0
 13
540.9493633406436
 23
171.5527443604992
 33
0.0
  0
MTEXT
  5
4AD9
330
4871
100
AcDbEntity
  8
0
 62
     3
100
AcDbMText
 10
540.9493633406436
 20
162.6551243605026
 30
0.0
 40
0.65
 41
0.0
 71
     5
 72
     1
  1
\A1;17 3/4"
 11
0.0000000000000001
 21
1.0
 31
0.0
 73
     1
 44
1.0
1001
ACAD
1000
MTEXTBEGIN
1070
    73
1070
     1
1070
    44
1040
1.0
1070
    74
1070
     0
1000
MTEXTEND
  0
POINT
  5
4ADA
330
4871
100
AcDbEntity
  8
DEFPOINTS
 62
     0
100
AcDbPoint
 10
525.8903459691722
 20
153.7575043605061
 30
0.0
  0
POINT
  5
4ADB
330
4871
100
AcDbEntity
  8
DEFPOINTS
 62
     0
100
AcDbPoint
 10
525.890345968612
 20
171.5527443604992
 30
0.0
  0
POINT
  5
4ADC
330
4871
100
AcDbEntity
  8
DEFPOINTS
 62
     0
100
AcDbPoint
 10
540.9493633406436
 20
171.5527443604992
 30
0.0
  0
ENDBLK
  5
4873
330
4871
100
AcDbEntity
  8
0
100
AcDbBlockEnd
  0
BLOCK
  5
4880
330
487F
100
AcDbEntity
  8
0
100
AcDbBlockBegin
  2
*D31
 70
     1
 10
0.0
 20
0.0
 30
0.0
  3
*D31
  1

  0
LINE
  5
4ADD
330
487F
100
AcDbEntity
  8
0
  6
Continuous
 62
     3
370
    13
100
AcDbLine
 10
538.4829209686097
 20
185.584734990396
 30
0.0
 11
539.615039465762
 21
185.584734990396
 31
0.0
  0
LINE
  5
4ADE
330
487F
100
AcDbEntity
  8
0
  6
Continuous
 62
     3
370
    13
100
AcDbLine
 10
537.9672443072871
 20
180.0729311028881
 30
0.0
 11
539.615039465762
 21
180.0729311028881
 31
0.0
  0
LINE
  5
4ADF
330
487F
100
AcDbEntity
  8
0
  6
Continuous
 62
     3
370
    13
100
AcDbLine
 10
539.295039465762
 20
184.934734990396
 30
0.0
 11
539.295039465762
 21
184.3504997133088
 31
0.0
  0
LINE
  5
4AE0
330
487F
100
AcDbEntity
  8
0
  6
Continuous
 62
     3
370
    13
100
AcDbLine
 10
539.295039465762
 20
180.7229311028881
 30
0.0
 11
539.295039465762
 21
181.3071663799754
 31
0.0
  0
SOLID
  5
4AE1
330
487F
100
AcDbEntity
  8
0
 62
     3
100
AcDbTrace
 10
539.1867061324286
 20
184.934734990396
 30
0.0
 11
539.4033727990953
 21
184.934734990396
 31
0.0
 12
539.295039465762
 22
185.584734990396
 32
0.0
 13
539.295039465762
 23
185.584734990396
 33
0.0
  0
SOLID
  5
4AE2
330
487F
100
AcDbEntity
  8
0
 62
     3
100
AcDbTrace
 10
539.1867061324286
 20
180.7229311028881
 30
0.0
 11
539.4033727990953
 21
180.7229311028881
 31
0.0
 12
539.295039465762
 22
180.0729311028881
 32
0.0
 13
539.295039465762
 23
180.0729311028881
 33
0.0
  0
MTEXT
  5
4AE3
330
487F
100
AcDbEntity
  8
0
 62
     3
100
AcDbMText
 10
539.295039465762
 20
182.8288330466422
 30
0.0
 40
0.65
 41
0.0
 71
     5
 72
     1
  1
\A1;5 1/2"
 11
0.0000000000000001
 21
1.0
 31
0.0
 73
     1
 44
1.0
1001
ACAD
1000
MTEXTBEGIN
1070
    73
1070
     1
1070
    44
1040
1.0
1070
    74
1070
     0
1000
MTEXTEND
  0
POINT
  5
4AE4
330
487F
100
AcDbEntity
  8
DEFPOINTS
 62
     0
100
AcDbPoint
 10
537.6029209686097
 20
185.584734990396
 30
0.0
  0
POINT
  5
4AE5
330
487F
100
AcDbEntity
  8
DEFPOINTS
 62
     0
100
AcDbPoint
 10
537.0872443072872
 20
180.0729311028881
 30
0.0
  0
POINT
  5
4AE6
330
487F
100
AcDbEntity
  8
DEFPOINTS
 62
     0
100
AcDbPoint
 10
539.295039465762
 20
180.0729311028881
 30
0.0
  0
ENDBLK
  5
4881
330
487F
100
AcDbEntity
  8
0
100
AcDbBlockEnd
  0
ENDSEC
  0
SECTION
  2
ENTITIES
  0
LINE
  5
46F6
330
432D
100
AcDbEntity
  8
0
100
AcDbLine
 10
514.965170968608
 20
185.584734990396
 30
0.0
 11
536.8155209686086
 21
185.584734990396
 31
0.0
  0
LINE
  5
46F7
330
432D
100
AcDbEntity
  8
虚线
 48
0.1
100
AcDbLine
 10
536.6186709686084
 20
185.3878849903885
 30
0.0
 11
536.2506474276381
 21
181.8301375008777
 31
0.0
  0
LINE
  5
46F8
330
432D
100
AcDbEntity
  8
0
370
    25
100
AcDbLine
 10
536.6659194135356
 20
185.3867326769141
 30
0.0
 11
536.297826681381
 21
181.8276649409563
 31
0.0
  0
LINE
  5
46F9
330
432D
100
AcDbEntity
  8
虚线
 48
0.1
100
AcDbLine
 10
515.5300445095783
 20
181.8301375008777
 30
0.0
 11
515.1620209686083
 21
185.3878849904031
 31
0.0
  0
LINE
  5
46FA
330
432D
100
AcDbEntity
  8
0
370
    25
100
AcDbLine
 10
515.4828652558356
 20
181.8276649409563
 30
0.0
 11
515.1147725236882
 21
185.3867326769286
 31
0.0
  0
ARC
  5
46FB
330
432D
100
AcDbEntity
  8
虚线
 48
0.1
100
AcDbCircle
 10
525.890345968612
 20
317.8490116342327
 30
0.0
 40
137.795
100
AcDbArc
 50
266.3012409809204
 51
269.0207608976697
1001
GENIUS_GENODEF_13
1002
{
1000
HIER
1070
     0
1002
}
1002
{
1000
MANEDIT
1070
     0
1002
}
1002
{
1000
NOSEL
1070
     0
1002
}
1002
{
1000
BEHIND
1070
     0
1002
}
1002
{
1000
OTHER
1070
     0
1002
}
1002
{
1000
REACTOR
1002
}
1001
GENIUS_GENOBJ-N-FIL_13
1002
{
1000
OWNER
1000
GEN
1002
}
  0
ARC
  5
46FC
330
432D
100
AcDbEntity
  8
虚线
 48
0.1
100
AcDbCircle
 10
523.5333951410579
 20
179.9560433846964
 30
0.0
 40
0.11811
100
AcDbArc
 50
26.56505118174033
 51
89.02076089766977
1001
GENIUS_GENODEF_13
1002
{
1000
HIER
1070
     0
1002
}
1002
{
1000
MANEDIT
1070
     0
1002
}
1002
{
1000
NOSEL
1070
     0
1002
}
1002
{
1000
BEHIND
1070
     0
1002
}
1002
{
1000
OTHER
1070
     0
1002
}
1002
{
1000
REACTOR
1002
}
1001
GENIUS_GENOBJ-N-FIL_13
1002
{
1000
OWNER
1000
GEN
1002
}
  0
ARC
  5
46FD
330
432D
100
AcDbEntity
  8
0
370
    25
100
AcDbCircle
 10
525.890345968612
 20
317.8490116342327
 30
0.0
 40
137.842244
100
AcDbArc
 50
266.3012409809204
 51
269.0207608976697
1001
GENIUS_GENODEF_13
1002
{
1000
HIER
1070
     0
1002
}
1002
{
1000
MANEDIT
1070
     0
1002
}
1002
{
1000
NOSEL
1070
     0
1002
}
1002
{
1000
BEHIND
1070
     0
1002
}
1002
{
1000
OTHER
1070
     0
1002
}
1002
{
1000
REACTOR
1002
}
1001
GENIUS_GENOBJ-N-FIL_13
1002
{
1000
OWNER
1000
GEN
1002
}
  0
ARC
  5
46FE
330
432D
100
AcDbEntity
  8
0
370
    25
100
AcDbCircle
 10
523.5333951410579
 20
179.9560433846964
 30
0.0
 40
0.070866
100
AcDbArc
 50
26.52381262794935
 51
89.02076089766977
1001
GENIUS_GENODEF_13
1002
{
1000
HIER
1070
     0
1002
}
1002
{
1000
MANEDIT
1070
     0
1002
}
1002
{
1000
NOSEL
1070
     0
1002
}
1002
{
1000
BEHIND
1070
     0
1002
}
1002
{
1000
OTHER
1070
     0
1002
}
1002
{
1000
REACTOR
1002
}
1001
GENIUS_GENOBJ-N-FIL_13
1002
{
1000
OWNER
1000
GEN
1002
}
  0
ARC
  5
46FF
330
432D
100
AcDbEntity
  8
虚线
 48
0.1
100
AcDbCircle
 10
517.1026863009103
 20
181.9125561647561
 30
0.0
 40
1.574799999999999
100
AcDbArc
 50
182.999999991239
 51
266.3012409809204
1001
GENIUS_GENODEF_13
1002
{
1000
HIER
1070
     0
1002
}
1002
{
1000
MANEDIT
1070
     0
1002
}
1002
{
1000
NOSEL
1070
     0
1002
}
1002
{
1000
BEHIND
1070
     0
1002
}
1002
{
1000
OTHER
1070
     0
1002
}
1002
{
1000
REACTOR
1002
}
1001
GENIUS_GENOBJ-N-FIL_13
1002
{
1000
OWNER
1000
GEN
1002
}
  0
ARC
  5
4700
330
432D
100
AcDbEntity
  8
0
370
    25
100
AcDbCircle
 10
517.1026863009103
 20
181.9125561647561
 30
0.0
 40
1.622043999999999
100
AcDbArc
 50
182.999999991239
 51
266.3012409809204
1001
GENIUS_GENODEF_13
1002
{
1000
HIER
1070
     0
1002
}
1002
{
1000
MANEDIT
1070
     0
1002
}
1002
{
1000
NOSEL
1070
     0
1002
}
1002
{
1000
BEHIND
1070
     0
1002
}
1002
{
1000
OTHER
1070
     0
1002
}
1002
{
1000
REACTOR
1002
}
1001
GENIUS_GENOBJ-N-FIL_13
1002
{
1000
OWNER
1000
GEN
1002
}
  0
LINE
  5
4701
330
432D
100
AcDbEntity
  8
0
370
    25
100
AcDbLine
 10
536.8155209686086
 20
185.584734990396
 30
0.0
 11
537.6029209686097
 21
185.584734990396
 31
0.0
  0
LINE
  5
4702
330
432D
100
AcDbEntity
  8
0
370
    25
100
AcDbLine
 10
536.8155209686086
 20
185.5374909903948
 30
0.0
 11
537.6029209686097
 21
185.5374909903948
 31
0.0
  0
LINE
  5
4703
330
432D
100
AcDbEntity
  8
0
370
    25
100
AcDbLine
 10
514.965170968608
 20
185.584734990396
 30
0.0
 11
514.177770968607
 21
185.584734990396
 31
0.0
  0
LINE
  5
4704
330
432D
100
AcDbEntity
  8
0
370
    25
100
AcDbLine
 10
514.965170968608
 20
185.5374909903948
 30
0.0
 11
514.177770968607
 21
185.5374909903948
 31
0.0
  0
ARC
  5
4705
330
432D
100
AcDbEntity
  8
虚线
 48
0.1
100
AcDbCircle
 10
536.8155209686086
 20
185.3878849904031
 30
0.0
 40
0.19685
100
AcDbArc
 50
90.0
 51
180.0
1001
GENIUS_GENODEF_13
1002
{
1000
HIER
1070
     0
1002
}
1002
{
1000
MANEDIT
1070
     0
1002
}
1002
{
1000
NOSEL
1070
     0
1002
}
1002
{
1000
BEHIND
1070
     0
1002
}
1002
{
1000
OTHER
1070
     0
1002
}
1002
{
1000
REACTOR
1002
}
1001
GENIUS_GENOBJ-N-FIL_13
1002
{
1000
OWNER
1000
GEN
1002
}
  0
ARC
  5
4706
330
432D
100
AcDbEntity
  8
0
370
    25
100
AcDbCircle
 10
536.8155209686086
 20
185.3878849904031
 30
0.0
 40
0.149606
100
AcDbArc
 50
90.0
 51
180.4413148895961
1001
GENIUS_GENODEF_13
1002
{
1000
HIER
1070
     0
1002
}
1002
{
1000
MANEDIT
1070
     0
1002
}
1002
{
1000
NOSEL
1070
     0
1002
}
1002
{
1000
BEHIND
1070
     0
1002
}
1002
{
1000
OTHER
1070
     0
1002
}
1002
{
1000
REACTOR
1002
}
1001
GENIUS_GENOBJ-N-FIL_13
1002
{
1000
OWNER
1000
GEN
1002
}
  0
ARC
  5
4707
330
432D
100
AcDbEntity
  8
虚线
 48
0.1
100
AcDbCircle
 10
514.965170968608
 20
185.3878849904031
 30
0.0
 40
0.19685
100
AcDbArc
 50
0.0
 51
90.0
1001
GENIUS_GENODEF_13
1002
{
1000
HIER
1070
     0
1002
}
1002
{
1000
MANEDIT
1070
     0
1002
}
1002
{
1000
NOSEL
1070
     0
1002
}
1002
{
1000
BEHIND
1070
     0
1002
}
1002
{
1000
OTHER
1070
     0
1002
}
1002
{
1000
REACTOR
1002
}
1001
GENIUS_GENOBJ-N-FIL_13
1002
{
1000
OWNER
1000
GEN
1002
}
  0
ARC
  5
4708
330
432D
100
AcDbEntity
  8
0
370
    25
100
AcDbCircle
 10
514.965170968608
 20
185.3878849904031
 30
0.0
 40
0.149606
100
AcDbArc
 50
359.5586851104031
 51
90.0
1001
GENIUS_GENODEF_13
1002
{
1000
HIER
1070
     0
1002
}
1002
{
1000
MANEDIT
1070
     0
1002
}
1002
{
1000
NOSEL
1070
     0
1002
}
1002
{
1000
BEHIND
1070
     0
1002
}
1002
{
1000
OTHER
1070
     0
1002
}
1002
{
1000
REACTOR
1002
}
1001
GENIUS_GENOBJ-N-FIL_13
1002
{
1000
OWNER
1000
GEN
1002
}
  0
ARC
  5
4709
330
432D
100
AcDbEntity
  8
虚线
 48
0.1
100
AcDbCircle
 10
525.890345968612
 20
317.8490116342327
 30
0.0
 40
137.795
100
AcDbArc
 50
270.9793365868369
 51
273.6987590190795
  0
ARC
  5
470A
330
432D
100
AcDbEntity
  8
虚线
 48
0.1
100
AcDbCircle
 10
528.2475314169427
 20
179.9560473951751
 30
0.0
 40
0.11811
100
AcDbArc
 50
90.97933658683684
 51
153.4349488182597
1001
GENIUS_GENODEF_13
1002
{
1000
HIER
1070
     0
1002
}
1002
{
1000
MANEDIT
1070
     0
1002
}
1002
{
1000
NOSEL
1070
     0
1002
}
1002
{
1000
BEHIND
1070
     0
1002
}
1002
{
1000
OTHER
1070
     0
1002
}
1002
{
1000
REACTOR
1002
}
1001
GENIUS_GENOBJ-N-FIL_13
1002
{
1000
OWNER
1000
GEN
1002
}
  0
ARC
  5
470B
330
432D
100
AcDbEntity
  8
0
370
    25
100
AcDbCircle
 10
525.890345968612
 20
317.8490116342327
 30
0.0
 40
137.842244
100
AcDbArc
 50
270.9793365868369
 51
273.6987590190795
1001
GENIUS_GENODEF_13
1002
{
1000
HIER
1070
     0
1002
}
1002
{
1000
MANEDIT
1070
     0
1002
}
1002
{
1000
NOSEL
1070
     0
1002
}
1002
{
1000
BEHIND
1070
     0
1002
}
1002
{
1000
OTHER
1070
     0
1002
}
1002
{
1000
REACTOR
1002
}
1001
GENIUS_GENOBJ-N-FIL_13
1002
{
1000
OWNER
1000
GEN
1002
}
  0
ARC
  5
470C
330
432D
100
AcDbEntity
  8
0
370
    25
100
AcDbCircle
 10
528.2475314169427
 20
179.9560473951751
 30
0.0
 40
0.070866
100
AcDbArc
 50
90.97933658683684
 51
153.4349488182597
1001
GENIUS_GENOBJ-N-FIL_13
1002
{
1000
OWNER
1000
GEN
1002
}
1001
GENIUS_GENODEF_13
1002
{
1000
HIER
1070
     0
1002
}
1002
{
1000
MANEDIT
1070
     0
1002
}
1002
{
1000
NOSEL
1070
     0
1002
}
1002
{
1000
BEHIND
1070
     0
1002
}
1002
{
1000
OTHER
1070
     0
1002
}
1002
{
1000
REACTOR
1002
}
  0
ARC
  5
470D
330
432D
100
AcDbEntity
  8
虚线
 48
0.1
100
AcDbCircle
 10
534.6780056363061
 20
181.9125561647561
 30
0.0
 40
1.574799999999999
100
AcDbArc
 50
273.6987590190795
 51
357.0000000087609
  0
ARC
  5
470E
330
432D
100
AcDbEntity
  8
0
370
    25
100
AcDbCircle
 10
534.6780056363061
 20
181.9125561647561
 30
0.0
 40
1.622043999999999
100
AcDbArc
 50
273.6987590190795
 51
357.0000000087609
1001
GENIUS_GENODEF_13
1002
{
1000
HIER
1070
     0
1002
}
1002
{
1000
MANEDIT
1070
     0
1002
}
1002
{
1000
NOSEL
1070
     0
1002
}
1002
{
1000
BEHIND
1070
     0
1002
}
1002
{
1000
OTHER
1070
     0
1002
}
1002
{
1000
REACTOR
1002
}
1001
GENIUS_GENOBJ-N-FIL_13
1002
{
1000
OWNER
1000
GEN
1002
}
  0
LINE
  5
470F
330
432D
100
AcDbEntity
  8
中心线
 48
2.5
370
    13
100
AcDbLine
 10
525.890345968612
 20
181.7686171048735
 30
0.0
 11
525.890345968612
 21
178.335370163917
 31
0.0
  0
LINE
  5
4710
330
432D
100
AcDbEntity
  8
虚线
 48
0.1
100
AcDbLine
 10
528.1418906214096
 20
180.0088677929489
 30
0.0
 11
528.130888277978
 21
179.9868631060708
 31
0.0
  0
ARC
  5
4711
330
432D
100
AcDbEntity
  8
虚线
 48
0.1
100
AcDbCircle
 10
528.0674809902342
 20
180.01850972389
 30
0.0
 40
0.070866
100
AcDbArc
 50
279.824568595312
 51
333.4761873245104
1001
GENIUS_GENOBJ-N-FIL_13
1002
{
1000
OWNER
1000
GEN
1002
}
1001
GENIUS_GENODEF_13
1002
{
1000
HIER
1070
     0
1002
}
1002
{
1000
MANEDIT
1070
     0
1002
}
1002
{
1000
NOSEL
1070
     0
1002
}
1002
{
1000
BEHIND
1070
     0
1002
}
1002
{
1000
OTHER
1070
     0
1002
}
1002
{
1000
REACTOR
1002
}
  0
LINE
  5
4712
330
432D
100
AcDbEntity
  8
0
370
    25
100
AcDbLine
 10
528.1841469396243
 20
179.9877396338452
 30
0.0
 11
528.1731217857672
 21
179.9656893261308
 31
0.0
  0
ARC
  5
4713
330
432D
100
AcDbEntity
  8
0
370
    25
100
AcDbCircle
 10
528.0674809902342
 20
180.01850972389
 30
0.0
 40
0.11811
100
AcDbArc
 50
279.8658069403316
 51
333.4349488182597
1001
GENIUS_GENODEF_13
1002
{
1000
HIER
1070
     0
1002
}
1002
{
1000
MANEDIT
1070
     0
1002
}
1002
{
1000
NOSEL
1070
     0
1002
}
1002
{
1000
BEHIND
1070
     0
1002
}
1002
{
1000
OTHER
1070
     0
1002
}
1002
{
1000
REACTOR
1002
}
1001
GENIUS_GENOBJ-N-FIL_13
1002
{
1000
OWNER
1000
GEN
1002
}
  0
LINE
  5
4714
330
432D
100
AcDbEntity
  8
虚线
 48
0.1
100
AcDbLine
 10
528.0795730027606
 20
179.9486829683337
 30
0.0
 11
527.6621122763756
 21
179.8760811028805
 31
0.0
  0
LINE
  5
4715
330
432D
100
AcDbEntity
  8
0
370
    25
100
AcDbLine
 10
528.0877180963874
 20
179.9021463635327
 30
0.0
 11
527.6661898476564
 21
179.8288371028793
 31
0.0
  0
LINE
  5
4716
330
432D
100
AcDbEntity
  8
虚线
 48
0.1
100
AcDbLine
 10
523.6390359365908
 20
180.0088637824556
 30
0.0
 11
523.6500590852013
 21
179.9868174852345
 31
0.0
  0
LINE
  5
4717
330
432D
100
AcDbEntity
  8
0
370
    25
100
AcDbLine
 10
523.5968024288235
 20
179.9876900024719
 30
0.0
 11
523.607802766994
 21
179.9656893261308
 31
0.0
  0
LINE
  5
4718
330
432D
100
AcDbEntity
  8
虚线
 48
0.1
100
AcDbLine
 10
523.7013515500006
 20
179.9486829683337
 30
0.0
 11
524.1188122763782
 21
179.8760811028805
 31
0.0
  0
ARC
  5
4719
330
432D
100
AcDbEntity
  8
虚线
 48
0.1
100
AcDbCircle
 10
523.7134435625197
 20
180.01850972389
 30
0.0
 40
0.070866
100
AcDbArc
 50
206.5650511817403
 51
260.1341930596685
1001
GENIUS_GENODEF_13
1002
{
1000
HIER
1070
     0
1002
}
1002
{
1000
MANEDIT
1070
     0
1002
}
1002
{
1000
NOSEL
1070
     0
1002
}
1002
{
1000
BEHIND
1070
     0
1002
}
1002
{
1000
OTHER
1070
     0
1002
}
1002
{
1000
REACTOR
1002
}
1001
GENIUS_GENOBJ-N-FIL_13
1002
{
1000
OWNER
1000
GEN
1002
}
  0
LINE
  5
471A
330
432D
100
AcDbEntity
  8
0
370
    25
100
AcDbLine
 10
523.6932064563736
 20
179.9021463635327
 30
0.0
 11
524.1107174339198
 21
179.8295357587376
 31
0.0
  0
ARC
  5
471B
330
432D
100
AcDbEntity
  8
0
370
    25
100
AcDbCircle
 10
523.7134435625197
 20
180.01850972389
 30
0.0
 40
0.11811
100
AcDbArc
 50
206.5650511817403
 51
260.1341930596685
1001
GENIUS_GENOBJ-N-FIL_13
1002
{
1000
OWNER
1000
GEN
1002
}
1001
GENIUS_GENODEF_13
1002
{
1000
HIER
1070
     0
1002
}
1002
{
1000
MANEDIT
1070
     0
1002
}
1002
{
1000
NOSEL
1070
     0
1002
}
1002
{
1000
BEHIND
1070
     0
1002
}
1002
{
1000
OTHER
1070
     0
1002
}
1002
{
1000
REACTOR
1002
}
  0
LINE
  5
471C
330
432D
100
AcDbEntity
  8
虚线
 48
0.1
100
AcDbLine
 10
524.1188122763782
 20
179.8760811028805
 30
0.0
 11
527.6621122763756
 21
179.8760811028805
 31
0.0
  0
LINE
  5
471D
330
432D
100
AcDbEntity
  8
细实线
100
AcDbLine
 10
524.1147347050866
 20
179.8288371028793
 30
0.0
 11
527.6661898476564
 21
179.8288371028793
 31
0.0
  0
LINE
  5
471E
330
432D
100
AcDbEntity
  8
虚线
 48
0.1
100
AcDbLine
 10
528.2305558175651
 20
180.0729311028881
 30
0.0
 11
523.5503431037072
 21
180.0729311028881
 31
0.0
  0
CIRCLE
  5
471F
330
432D
100
AcDbEntity
  8
0
370
    25
100
AcDbCircle
 10
525.8903459691794
 20
165.0566943604971
 30
0.0
 40
2.283459999999998
  0
CIRCLE
  5
4720
330
432D
100
AcDbEntity
  8
0
370
    25
100
AcDbCircle
 10
525.8903459691794
 20
165.0566943604971
 30
0.0
 40
2.16535
  0
CIRCLE
  5
4721
330
432D
100
AcDbEntity
  8
0
370
    25
100
AcDbCircle
 10
525.8903459691794
 20
165.0566943604971
 30
0.0
 40
1.771649999999999
  0
ARC
  5
4722
330
432D
100
AcDbEntity
  8
0
370
    25
100
AcDbCircle
 10
532.5707044113154
 20
166.5075843342238
 30
0.0
 40
3.936999999999999
100
AcDbArc
 50
3.299791807199965
 51
86.86229298983031
  0
ARC
  5
4723
330
432D
100
AcDbEntity
  8
0
370
    25
100
AcDbCircle
 10
519.209987525901
 20
166.5075843342238
 30
0.0
 40
3.936999999999999
100
AcDbArc
 50
93.13770701016968
 51
176.7002081928
  0
ARC
  5
4724
330
432D
100
AcDbEntity
  8
0
370
    25
100
AcDbCircle
 10
586.0280209686101
 20
162.6551243604954
 30
0.0
 40
70.866
100
AcDbArc
 50
176.7002081928
 51
183.2997918071999
  0
ARC
  5
4725
330
432D
100
AcDbEntity
  8
0
370
    25
100
AcDbCircle
 10
586.0280209686101
 20
162.6551243604954
 30
0.0
 40
71.83056500000002
100
AcDbArc
 50
176.7341243810393
 51
183.2658756189607
  0
ARC
  5
4726
330
432D
100
AcDbEntity
  8
0
370
    25
100
AcDbCircle
 10
519.2077187718025
 20
166.4680307752169
 30
0.0
 40
4.901564999999997
100
AcDbArc
 50
93.139787540088
 51
176.7341243810393
  0
ARC
  5
4727
330
432D
100
AcDbEntity
  8
0
370
    25
100
AcDbCircle
 10
519.209987525901
 20
158.8026643867815
 30
0.0
 40
3.936999999999999
100
AcDbArc
 50
183.2997918071999
 51
266.8622929898303
  0
ARC
  5
4728
330
432D
100
AcDbEntity
  8
0
370
    25
100
AcDbCircle
 10
465.7526709686066
 20
162.6551243604954
 30
0.0
 40
70.866
100
AcDbArc
 50
356.7002081928001
 51
3.299791807199965
  0
ARC
  5
4729
330
432D
100
AcDbEntity
  8
0
370
    25
100
AcDbCircle
 10
465.7526709686066
 20
162.6551243604954
 30
0.0
 40
71.83056500000002
100
AcDbArc
 50
356.7341243810393
 51
3.265875618960663
  0
ARC
  5
472A
330
432D
100
AcDbEntity
  8
0
370
    25
100
AcDbCircle
 10
532.5707044113154
 20
158.8026643867815
 30
0.0
 40
3.936999999999999
100
AcDbArc
 50
273.1377070101697
 51
356.7002081928001
  0
ARC
  5
472B
330
432D
100
AcDbEntity
  8
0
370
    25
100
AcDbCircle
 10
525.890345968612
 20
280.666699360565
 30
0.0
 40
125.9840000000588
100
AcDbArc
 50
266.8622929898303
 51
273.1377070101697
  0
ARC
  5
472C
330
432D
100
AcDbEntity
  8
0
370
    25
100
AcDbCircle
 10
525.890345968612
 20
280.666699360565
 30
0.0
 40
126.9091950000588
100
AcDbArc
 50
266.860212459912
 51
273.139787540088
  0
ARC
  5
472D
330
432D
100
AcDbEntity
  8
0
370
    25
100
AcDbCircle
 10
519.2077187718025
 20
158.8422179457739
 30
0.0
 40
4.901564999999997
100
AcDbArc
 50
183.2658756189607
 51
266.860212459912
  0
ARC
  5
472E
330
432D
100
AcDbEntity
  8
0
370
    25
100
AcDbCircle
 10
532.5729731654139
 20
158.8422179457739
 30
0.0
 40
4.901564999999997
100
AcDbArc
 50
273.139787540088
 51
356.7341243810393
  0
ARC
  5
472F
330
432D
100
AcDbEntity
  8
0
370
    25
100
AcDbCircle
 10
525.890345968612
 20
44.64354936044037
 30
0.0
 40
125.9840000000588
100
AcDbArc
 50
86.86229298983031
 51
93.13770701016968
  0
ARC
  5
4730
330
432D
100
AcDbEntity
  8
0
370
    25
100
AcDbCircle
 10
525.890345968612
 20
44.64354936044037
 30
0.0
 40
126.9091950000588
100
AcDbArc
 50
86.86021245991202
 51
93.139787540088
  0
ARC
  5
4731
330
432D
100
AcDbEntity
  8
0
370
    25
100
AcDbCircle
 10
532.5729731654139
 20
166.4680307752169
 30
0.0
 40
4.901564999999997
100
AcDbArc
 50
3.265875618960663
 51
86.86021245991202
  0
LINE
  5
4732
330
432D
100
AcDbEntity
  8
中心线
 48
0.2
370
    13
100
AcDbLine
 10
520.853665949115
 20
165.0566943604535
 30
0.0
 11
530.9442395699447
 21
165.0566943607737
 31
0.0
  0
LINE
  5
4733
330
432D
100
AcDbEntity
  8
中心线
 48
0.2
370
    13
100
AcDbLine
 10
525.8903459691722
 20
172.3401443602379
 30
0.0
 11
525.8903459691722
 21
153.0723286222237
 31
0.0
  0
LINE
  5
4734
330
432D
100
AcDbEntity
  8
0
370
    25
100
AcDbLine
 10
514.177770968607
 20
185.584734990396
 30
0.0
 11
514.177770968607
 21
185.5374909903948
 31
0.0
  0
LINE
  5
4735
330
432D
100
AcDbEntity
  8
0
370
    25
100
AcDbLine
 10
537.6029209686097
 20
185.584734990396
 30
0.0
 11
537.6029209686097
 21
185.5374909903948
 31
0.0
  0
LINE
  5
4736
330
432D
100
AcDbEntity
  8
虚线
370
    25
100
AcDbLine
 10
524.1188122763782
 20
179.8760811028805
 30
0.0
 11
524.1107174339198
 21
179.8295357587376
 31
0.0
  0
LINE
  5
4737
330
432D
100
AcDbEntity
  8
虚线
 48
0.1
100
AcDbLine
 10
527.6621122763756
 20
179.8760811028805
 30
0.0
 11
527.6702071188414
 21
179.8295357587376
 31
0.0
  0
LINE
  5
4738
330
432D
100
AcDbEntity
  8
0
100
AcDbLine
 10
523.5346062491084
 20
180.0268990349614
 30
0.0
 11
528.2463201883367
 21
180.0269030433737
 31
0.0
  0
LINE
  5
4739
330
432D
100
AcDbEntity
  8
0
100
AcDbLine
 10
514.965170968608
 20
185.5374909903948
 30
0.0
 11
536.8155209686086
 21
185.5374909903948
 31
0.0
  0
LWPOLYLINE
  5
473A
330
432D
100
AcDbEntity
  8
截面层
 62
     1
100
AcDbPolyline
 90
        9
 70
     0
 43
0.0
 10
514.3533134799946
 20
125.5462644437048
 42
0.0288032880074184
 10
514.3533134800239
 20
117.3883372677355
 42
0.3816741358736872
 10
518.0682673931081
 20
113.683849745501
 42
0.0273915040286242
 10
531.8614833931937
 20
113.683849745501
 42
0.3816741358736872
 10
535.5764373063797
 20
117.3883372681866
 42
0.0288032880074184
 10
535.5764373063577
 20
125.5462644441559
 42
0.3816741358736872
 10
531.8614833932737
 20
129.2507519663904
 42
0.0273915040286242
 10
518.068267393188
 20
129.2507519663904
 42
0.3816741358736872
 10
514.3533134800239
 20
125.5462644441559
  0
LWPOLYLINE
  5
473B
330
432D
100
AcDbEntity
  8
虚线
 62
     3
 48
0.2
100
AcDbPolyline
 90
        8
 70
     1
 43
0.0
 10
514.1037284500056
 20
125.5606541207944
 42
0.0288032880074184
 10
514.1037284500347
 20
117.3739475906313
 42
0.3816741358736778
 10
518.0545819366018
 20
113.4342251107427
 42
0.0273915040286241
 10
531.8751688496925
 20
113.4342251107427
 42
0.3816741358736944
 10
535.8260223363687
 20
117.373947591097
 42
0.0288032880074184
 10
535.8260223363397
 20
125.5606541212601
 42
0.3816741358736778
 10
531.8751688497726
 20
129.5003766011487
 42
0.0273915040286241
 10
518.0545819366892
 20
129.5003766011487
 42
0.3816741358736597
  0
LWPOLYLINE
  5
473C
330
432D
100
AcDbEntity
  8
虚线
 62
    11
 48
0.2
100
AcDbPolyline
 90
        8
 70
     1
 43
0.0
 10
514.6028985099841
 20
125.5318747666006
 42
0.0288032880074183
 10
514.6028985100058
 20
117.4027269448397
 42
0.3816741358736768
 10
518.0819528496072
 20
113.9334743802737
 42
0.0273915040286242
 10
531.8477979366873
 20
113.9334743802592
 42
0.381674135873658
 10
535.3268522763977
 20
117.4027269452763
 42
0.0288032880074183
 10
535.3268522763686
 20
125.5318747670517
 42
0.3816741358736768
 10
531.8477979367675
 20
129.0011273316177
 42
0.0273915040286242
 10
518.0819528496871
 20
129.0011273316177
 42
0.3816741358736762
  0
INSERT
  5
473E
330
432D
100
AcDbEntity
  8
0
100
AcDbBlockReference
  2
*U18
 10
74.9486968875292
 20
0.0
 30
0.0
  0
INSERT
  5
473F
330
432D
100
AcDbEntity
  8
0
100
AcDbBlockReference
  2
*U19
 10
75.68783711163883
 20
-1.165901318853457
 30
0.0
  0
ARC
  5
4777
330
432D
100
AcDbEntity
  8
0
370
    25
100
AcDbCircle
 10
531.6366270449765
 20
125.3197608296738
 30
0.0
 40
3.936999999999999
100
AcDbArc
 50
3.299791807199935
 51
86.86229298983031
  0
ARC
  5
4778
330
432D
100
AcDbEntity
  8
0
370
    25
100
AcDbCircle
 10
518.2759101595624
 20
125.3197608296738
 30
0.0
 40
3.936999999999999
100
AcDbArc
 50
93.13770701016963
 51
176.7002081928
  0
ARC
  5
4779
330
432D
100
AcDbEntity
  8
0
370
    25
100
AcDbCircle
 10
585.0939436022712
 20
121.4673008559454
 30
0.0
 40
70.866
100
AcDbArc
 50
176.7002081928
 51
183.2997918071999
  0
ARC
  5
477A
330
432D
100
AcDbEntity
  8
0
370
    25
100
AcDbCircle
 10
585.0939436022712
 20
121.4673008559454
 30
0.0
 40
71.83056500000002
100
AcDbArc
 50
176.7341243810394
 51
183.2658756189605
  0
ARC
  5
477B
330
432D
100
AcDbEntity
  8
0
370
    25
100
AcDbCircle
 10
518.2736414054637
 20
125.2802072706669
 30
0.0
 40
4.901564999999997
100
AcDbArc
 50
93.13978754008795
 51
176.7341243810394
  0
ARC
  5
477C
330
432D
100
AcDbEntity
  8
0
370
    25
100
AcDbCircle
 10
518.2759101595624
 20
117.6148408822316
 30
0.0
 40
3.936999999999999
100
AcDbArc
 50
183.2997918071999
 51
266.8622929898303
  0
ARC
  5
477D
330
432D
100
AcDbEntity
  8
0
370
    25
100
AcDbCircle
 10
464.8185936022676
 20
121.4673008559454
 30
0.0
 40
70.866
100
AcDbArc
 50
356.7002081928
 51
3.299791807199935
  0
ARC
  5
477E
330
432D
100
AcDbEntity
  8
0
370
    25
100
AcDbCircle
 10
464.8185936022676
 20
121.4673008559454
 30
0.0
 40
71.83056500000002
100
AcDbArc
 50
356.7341243810393
 51
3.265875618960575
  0
ARC
  5
477F
330
432D
100
AcDbEntity
  8
0
370
    25
100
AcDbCircle
 10
531.6366270449765
 20
117.6148408822316
 30
0.0
 40
3.936999999999999
100
AcDbArc
 50
273.1377070101697
 51
356.7002081928
  0
ARC
  5
4780
330
432D
100
AcDbEntity
  8
0
370
    25
100
AcDbCircle
 10
524.9562686022731
 20
239.478875856015
 30
0.0
 40
125.9840000000588
100
AcDbArc
 50
266.8622929898303
 51
273.1377070101697
  0
ARC
  5
4781
330
432D
100
AcDbEntity
  8
0
370
    25
100
AcDbCircle
 10
524.9562686022731
 20
239.478875856015
 30
0.0
 40
126.9091950000588
100
AcDbArc
 50
266.860212459912
 51
273.139787540088
  0
ARC
  5
4782
330
432D
100
AcDbEntity
  8
0
370
    25
100
AcDbCircle
 10
518.2736414054637
 20
117.6543944412239
 30
0.0
 40
4.901564999999997
100
AcDbArc
 50
183.2658756189605
 51
266.860212459912
  0
ARC
  5
4783
330
432D
100
AcDbEntity
  8
0
370
    25
100
AcDbCircle
 10
531.638895799075
 20
117.6543944412239
 30
0.0
 40
4.901564999999997
100
AcDbArc
 50
273.139787540088
 51
356.7341243810393
  0
ARC
  5
4784
330
432D
100
AcDbEntity
  8
0
370
    25
100
AcDbCircle
 10
524.9562686022731
 20
3.455725855890435
 30
0.0
 40
125.9840000000588
100
AcDbArc
 50
86.86229298983031
 51
93.13770701016963
  0
ARC
  5
4785
330
432D
100
AcDbEntity
  8
0
370
    25
100
AcDbCircle
 10
524.9562686022731
 20
3.455725855890435
 30
0.0
 40
126.9091950000588
100
AcDbArc
 50
86.86021245991202
 51
93.13978754008795
  0
ARC
  5
4786
330
432D
100
AcDbEntity
  8
0
370
    25
100
AcDbCircle
 10
531.638895799075
 20
125.2802072706669
 30
0.0
 40
4.901564999999997
100
AcDbArc
 50
3.265875618960575
 51
86.86021245991202
  0
DIMENSION
  5
4846
330
432D
100
AcDbEntity
  8
0
100
AcDbDimension
  2
*D27
 10
536.6186709686067
 20
151.5628654346278
 30
0.0
 11
525.8903459686083
 21
151.5628654346278
 31
0.0
 70
    32
 71
     5
 42
21.45664999999656
  3
副本STANDARD
100
AcDbAlignedDimension
 13
515.1620209686101
 23
162.6551243604954
 33
0.0
 14
536.6186709686067
 24
162.6551243604954
 34
0.0
100
AcDbRotatedDimension
  0
DIMENSION
  5
4854
330
432D
100
AcDbEntity
  8
0
100
AcDbDimension
  2
*D28
 10
537.5832359686063
 20
149.8575210957591
 30
0.0
 11
525.8903459686081
 21
149.8575210957591
 31
0.0
 70
    32
 71
     5
 42
23.38577999999632
  3
副本STANDARD
100
AcDbAlignedDimension
 13
514.1974559686101
 23
162.6551243604954
 33
0.0
 14
537.5832359686063
 24
162.6551243604954
 34
0.0
100
AcDbRotatedDimension
  0
DIMENSION
  5
4862
330
432D
100
AcDbEntity
  8
0
100
AcDbDimension
  2
*D29
 10
539.4298456205611
 20
170.6275493604992
 30
0.0
 11
539.4298456205611
 21
162.6551243605026
 31
0.0
 70
    32
 71
     5
 42
15.94484999999309
  3
副本STANDARD
100
AcDbAlignedDimension
 13
525.8903459691722
 23
154.6826993605061
 33
0.0
 14
525.890345968612
 24
170.6275493604992
 34
0.0
 50
90.0
100
AcDbRotatedDimension
  0
DIMENSION
  5
4870
330
432D
100
AcDbEntity
  8
0
100
AcDbDimension
  2
*D30
 10
540.9493633406436
 20
171.5527443604992
 30
0.0
 11
540.9493633406436
 21
162.6551243605026
 31
0.0
 70
    32
 71
     5
 42
17.7952399999931
  3
副本STANDARD
100
AcDbAlignedDimension
 13
525.8903459691722
 23
153.7575043605061
 33
0.0
 14
525.890345968612
 24
171.5527443604992
 34
0.0
 50
90.0
100
AcDbRotatedDimension
  0
DIMENSION
  5
487E
330
432D
100
AcDbEntity
  8
0
100
AcDbDimension
  2
*D31
 10
539.295039465762
 20
180.0729311028881
 30
0.0
 11
539.295039465762
 21
182.8288330466422
 31
0.0
 70
    32
 71
     5
 42
5.511803887507964
  3
副本STANDARD
100
AcDbAlignedDimension
 13
537.6029209686097
 23
185.584734990396
 33
0.0
 14
537.0872443072872
 24
180.0729311028881
 34
0.0
 50
90.0
100
AcDbRotatedDimension
  0
INSERT
  5
4918
330
432D
100
AcDbEntity
  8
0
100
AcDbBlockReference
  2
*U20
 10
75.03866149901523
 20
0.0
 30
0.0
  0
INSERT
  5
4919
330
432D
100
AcDbEntity
  8
0
100
AcDbBlockReference
  2
*U21
 10
75.03866149901523
 20
0.0
 30
0.0
  0
INSERT
  5
491A
330
432D
100
AcDbEntity
  8
0
100
AcDbBlockReference
  2
*U22
 10
75.03866149901523
 20
0.0
 30
0.0
  0
LINE
  5
491B
330
432D
100
AcDbEntity
  8
虚线
 62
    11
 48
0.2
100
AcDbLine
 10
515.9063933013956
 20
102.6821224338694
 30
0.0
 11
522.1231983054791
 21
102.6821224338694
 31
0.0
  0
LINE
  5
491C
330
432D
100
AcDbEntity
  8
截面层
 62
     1
100
AcDbLine
 10
515.9063933013956
 20
104.6506263708773
 30
0.0
 11
522.1231983054791
 21
104.6506263708773
 31
0.0
  0
LINE
  5
491D
330
432D
100
AcDbEntity
  8
虚线
 62
     3
 48
0.2
100
AcDbLine
 10
515.9063933013956
 20
106.6191303078851
 30
0.0
 11
522.1231983054791
 21
106.6191303078851
 31
0.0
  0
LWPOLYLINE
  5
4967
330
432D
100
AcDbEntity
  8
虚线
 62
     3
 48
0.2
100
AcDbPolyline
 90
        8
 70
     1
 43
0.0
 10
514.1037284500056
 20
88.05231388760978
 42
0.0288032880074184
 10
514.1037284500347
 20
79.86560735744672
 42
0.3816741358736778
 10
518.0545819366018
 20
75.92588487755813
 42
0.0273915040286241
 10
531.8751688496925
 20
75.92588487755813
 42
0.3816741358736944
 10
535.8260223363687
 20
79.86560735791238
 42
0.0288032880074184
 10
535.8260223363397
 20
88.05231388807545
 42
0.3816741358736778
 10
531.8751688497726
 20
91.99203636796402
 42
0.0273915040286241
 10
518.0545819366892
 20
91.99203636796402
 42
0.3816741358736597
  0
LWPOLYLINE
  5
49AB
330
432D
100
AcDbEntity
  8
截面层
 62
     1
100
AcDbPolyline
 90
        9
 70
     0
 43
0.0
 10
514.3533134799946
 20
53.8186704290366
 42
0.0288032880074184
 10
514.3533134800239
 20
45.66074325306738
 42
0.3816741358736872
 10
518.0682673931081
 20
41.95625573083282
 42
0.0273915040286242
 10
531.8614833931937
 20
41.95625573083282
 42
0.3816741358736872
 10
535.5764373063797
 20
45.66074325351848
 42
0.0288032880074184
 10
535.5764373063577
 20
53.81867042948773
 42
0.3816741358736872
 10
531.8614833932737
 20
57.52315795172227
 42
0.0273915040286242
 10
518.068267393188
 20
57.52315795172227
 42
0.3816741358736872
 10
514.3533134800239
 20
53.81867042948773
  0
INSERT
  5
49AC
330
432D
100
AcDbEntity
  8
0
100
AcDbBlockReference
  2
*U21
 10
75.03866149901523
 20
-66.47282319234317
 30
0.0
  0
LINE
  5
49AD
330
432D
100
AcDbEntity
  8
截面层
 62
     1
100
AcDbLine
 10
515.9063933013956
 20
38.17780317853412
 30
0.0
 11
522.1231983054791
 21
38.17780317853412
 31
0.0
  0
LWPOLYLINE
  5
49AE
330
432D
100
AcDbEntity
  8
虚线
 62
    11
 48
0.2
100
AcDbPolyline
 90
        8
 70
     1
 43
0.0
 10
514.6028985099841
 20
21.21628634768865
 42
0.0288032880074183
 10
514.6028985100058
 20
13.0871385259278
 42
0.3816741358736768
 10
518.0819528496072
 20
9.617885961361821
 42
0.0273915040286242
 10
531.8477979366873
 20
9.617885961347267
 42
0.381674135873658
 10
535.3268522763977
 20
13.08713852636435
 42
0.0288032880074183
 10
535.3268522763686
 20
21.21628634813976
 42
0.3816741358736768
 10
531.8477979367675
 20
24.68553891270574
 42
0.0273915040286242
 10
518.0819528496871
 20
24.68553891270574
 42
0.3816741358736762
  0
INSERT
  5
49AF
330
432D
100
AcDbEntity
  8
0
100
AcDbBlockReference
  2
*U20
 10
75.03866149901523
 20
-98.22696932500424
 30
0.0
  0
LINE
  5
49B0
330
432D
100
AcDbEntity
  8
虚线
 62
    11
 48
0.2
100
AcDbLine
 10
515.9063933013956
 20
4.455153108865146
 30
0.0
 11
522.1231983054791
 21
4.455153108865146
 31
0.0
  0
INSERT
  5
4B95
330
432D
100
AcDbEntity
  8
0
100
AcDbBlockReference
  2
*U22
 10
75.03866149901523
 20
-33.59543979086794
 30
0.0
  0
LINE
  5
4B96
330
432D
100
AcDbEntity
  8
虚线
 62
     3
 48
0.2
100
AcDbLine
 10
515.9063933013956
 20
73.02369051701716
 30
0.0
 11
522.1231983054791
 21
73.02369051701716
 31
0.0
  0
CIRCLE
  5
4C79
330
432D
100
AcDbEntity
  8
0
370
    25
100
AcDbCircle
 10
524.9562686028403
 20
123.8688708559471
 30
0.0
 40
2.283459999999998
  0
CIRCLE
  5
4C7A
330
432D
100
AcDbEntity
  8
0
370
    25
100
AcDbCircle
 10
524.9562686028403
 20
123.8688708559471
 30
0.0
 40
2.16535
  0
CIRCLE
  5
4C7B
330
432D
100
AcDbEntity
  8
0
370
    25
100
AcDbCircle
 10
524.9562686028403
 20
123.8688708559471
 30
0.0
 40
1.771649999999999
  0
ENDSEC
  0
SECTION
  2
OBJECTS
  0
DICTIONARY
  5
42C3
330
0
100
AcDbDictionary
281
     1
  3
ACAD_2007HEADERVARS_RT
350
4D62
  3
ACAD_COLOR
350
4324
  3
ACAD_GROUP
350
42C4
  3
ACAD_LAYOUT
350
4323
  3
ACAD_MATERIAL
350
42C7
  3
ACAD_MLEADERSTYLE
350
4327
  3
ACAD_MLINESTYLE
350
4320
  3
ACAD_PLOTSETTINGS
350
4322
  3
ACAD_PLOTSTYLENAME
350
42C5
  3
ACAD_SCALELIST
350
42F4
  3
ACAD_TABLESTYLE
350
4325
  3
ACAD_VISUALSTYLE
350
42E0
  3
ACDB_RECOMPOSE_DATA
350
4D60
  3
AcDbVariableDictionary
350
49F2
  3
AcmDictionary
350
44C0
  3
AEC_PROPERTY_SET_DEFS
350
46F4
  3
AMG
350
4470
  3
AMGSNAPSETTINGS
350
44E9
  3
DWGPROPS
350
4D61
  3
lxx_dict
350
44E4
  0
DICTIONARY
  5
46A5
330
42B9
100
AcDbDictionary
280
     1
281
     1
  3
ACAD_LAYERSTATES
360
46A6
  0
DICTIONARY
  5
44F0
330
4316
100
AcDbDictionary
280
     1
281
     1
  3
ADSK_XREC_LAYER_RECONCILED
360
44F1
  0
DICTIONARY
  5
44F2
330
4341
100
AcDbDictionary
280
     1
281
     1
  3
ADSK_XREC_LAYER_RECONCILED
360
44F3
  0
DICTIONARY
  5
44F4
330
4342
100
AcDbDictionary
280
     1
281
     1
  3
ADSK_XREC_LAYER_RECONCILED
360
44F5
  0
DICTIONARY
  5
44F6
330
4344
100
AcDbDictionary
280
     1
281
     1
  3
ADSK_XREC_LAYER_RECONCILED
360
44F7
  0
DICTIONARY
  5
44F8
330
4345
100
AcDbDictionary
280
     1
281
     1
  3
ADSK_XREC_LAYER_RECONCILED
360
44F9
  0
DICTIONARY
  5
44FA
330
4347
100
AcDbDictionary
280
     1
281
     1
  3
ADSK_XREC_LAYER_RECONCILED
360
44FB
  0
DICTIONARY
  5
4D62
102
{ACAD_REACTORS
330
42C3
102
}
330
42C3
100
AcDbDictionary
281
     1
  3
DIMLTEX1
350
4D64
  3
DIMLTEX2
350
4D65
  3
DIMLTYPE
350
4D63
  0
DICTIONARY
  5
4324
102
{ACAD_REACTORS
330
42C3
102
}
330
42C3
100
AcDbDictionary
281
     1
  0
DICTIONARY
  5
42C4
102
{ACAD_REACTORS
330
42C3
102
}
330
42C3
100
AcDbDictionary
281
     1
  0
DICTIONARY
  5
4323
102
{ACAD_REACTORS
330
42C3
102
}
330
42C3
100
AcDbDictionary
281
     1
  3
Model
350
4330
  3
布局1
350
432C
  0
DICTIONARY
  5
42C7
102
{ACAD_REACTORS
330
42C3
102
}
330
42C3
100
AcDbDictionary
281
     1
  3
ByBlock
350
42D0
  3
ByLayer
350
42C8
  3
Global
350
42D8
  0
DICTIONARY
  5
4327
102
{ACAD_REACTORS
330
42C3
102
}
330
42C3
100
AcDbDictionary
281
     1
  3
Standard
350
4328
  0
DICTIONARY
  5
4320
102
{ACAD_REACTORS
330
42C3
102
}
330
42C3
100
AcDbDictionary
281
     1
  3
Standard
350
4321
  0
DICTIONARY
  5
4322
102
{ACAD_REACTORS
330
42C3
102
}
330
42C3
100
AcDbDictionary
281
     1
  0
ACDBDICTIONARYWDFLT
  5
42C5
102
{ACAD_REACTORS
330
42C3
102
}
330
42C3
100
AcDbDictionary
281
     1
  3
Normal
350
42C6
100
AcDbDictionaryWithDefault
340
42C6
  0
DICTIONARY
  5
42F4
102
{ACAD_REACTORS
330
42C3
102
}
330
42C3
100
AcDbDictionary
281
     1
  3
A0
350
42F5
  3
A1
350
42F6
  3
A2
350
42F7
  3
A3
350
42F8
  3
A4
350
42F9
  3
A5
350
42FA
  3
A6
350
42FB
  3
A7
350
42FC
  3
A8
350
42FD
  3
A9
350
42FE
  3
B0
350
42FF
  3
B1
350
4300
  3
B2
350
4301
  3
B3
350
4302
  3
B4
350
4303
  3
B5
350
4304
  3
B6
350
4305
  3
B7
350
4306
  3
B8
350
4307
  3
B9
350
4308
  3
C0
350
4309
  3
C1
350
430A
  3
C2
350
430B
  3
C3
350
430C
  3
C4
350
430D
  3
C5
350
430E
  3
C6
350
430F
  3
C7
350
4310
  3
C8
350
4311
  3
C9
350
4312
  3
D0
350
4313
  3
D1
350
4314
  3
D2
350
4315
  0
DICTIONARY
  5
4325
102
{ACAD_REACTORS
330
42C3
102
}
330
42C3
100
AcDbDictionary
281
     1
  3
Standard
350
4326
  0
DICTIONARY
  5
42E0
102
{ACAD_REACTORS
330
42C3
102
}
330
42C3
100
AcDbDictionary
281
     1
  3
2dWireframe
350
42E6
  3
3D Hidden
350
42E8
  3
3dWireframe
350
42E7
  3
Basic
350
42E5
  3
Brighten
350
42EC
  3
ColorChange
350
42F0
  3
Conceptual
350
42E9
  3
Dim
350
42EB
  3
EdgeColorOff
350
42F3
  3
Facepattern
350
42EF
  3
Flat
350
42E1
  3
FlatWithEdges
350
42E2
  3
Gouraud
350
42E3
  3
GouraudWithEdges
350
42E4
  3
JitterOff
350
42F1
  3
Linepattern
350
42EE
  3
OverhangOff
350
42F2
  3
Realistic
350
42EA
  3
Thicken
350
42ED
  0
XRECORD
  5
4D60
102
{ACAD_REACTORS
330
42C3
102
}
330
42C3
100
AcDbXrecord
280
     1
 90
        1
330
4326
  0
DICTIONARY
  5
49F2
102
{ACAD_REACTORS
330
42C3
102
}
330
42C3
100
AcDbDictionary
281
     1
  3
CANNOSCALE
350
49F5
  3
CMLEADERSTYLE
350
49F4
  3
CTABLESTYLE
350
49F3
  3
DIMASSOC
350
49F8
  3
INDEXCTL
350
49F7
  3
SORTENTS
350
49F6
  3
XCLIPFRAME
350
4D5E
  0
DICTIONARY
  5
44C0
102
{ACAD_REACTORS
330
42C3
102
}
330
42C3
100
AcDbDictionary
281
     1
  3
AcmStdDictionary
350
44CA
  0
DICTIONARY
  5
46F4
102
{ACAD_REACTORS
330
42C3
102
}
330
42C3
100
AcDbDictionary
281
     1
  0
DICTIONARY
  5
4470
102
{ACAD_REACTORS
330
42C3
102
}
330
42C3
100
AcDbDictionary
281
     1
  0
DICTIONARY
  5
44E9
102
{ACAD_REACTORS
330
42C3
102
}
330
42C3
100
AcDbDictionary
281
     1
  0
XRECORD
  5
4D61
102
{ACAD_REACTORS
330
42C3
102
}
330
42C3
100
AcDbXrecord
280
     1
  1
DWGPROPS COOKIE
  2

  3

  4

  6

  7

  8
Administrator
  9

300
=
301
=
302
=
303
=
304
=
305
=
306
=
307
=
308
=
309
=
 40
0.156941712962963
 41
2455434.724808658
 42
2457820.425125729
  1

 90
        0
  0
DICTIONARY
  5
44E4
102
{ACAD_REACTORS
330
42C3
102
}
330
42C3
100
AcDbDictionary
281
     1
  3
lxx_dimth
350
44E5
  0
DICTIONARY
  5
46A6
102
{ACAD_REACTORS
330
46A5
102
}
330
46A5
100
AcDbDictionary
281
     1
  0
XRECORD
  5
44F1
102
{ACAD_REACTORS
330
44F0
102
}
330
44F0
100
AcDbXrecord
280
     1
290
     1
  0
XRECORD
  5
44F3
102
{ACAD_REACTORS
330
44F2
102
}
330
44F2
100
AcDbXrecord
280
     1
290
     1
  0
XRECORD
  5
44F5
102
{ACAD_REACTORS
330
44F4
102
}
330
44F4
100
AcDbXrecord
280
     1
290
     1
  0
XRECORD
  5
44F7
102
{ACAD_REACTORS
330
44F6
102
}
330
44F6
100
AcDbXrecord
280
     1
290
     1
  0
XRECORD
  5
44F9
102
{ACAD_REACTORS
330
44F8
102
}
330
44F8
100
AcDbXrecord
280
     1
290
     1
  0
XRECORD
  5
44FB
102
{ACAD_REACTORS
330
44FA
102
}
330
44FA
100
AcDbXrecord
280
     1
290
     1
  0
XRECORD
  5
4D64
102
{ACAD_REACTORS
330
4D62
102
}
330
4D62
100
AcDbXrecord
280
     1
340
431E
  0
XRECORD
  5
4D65
102
{ACAD_REACTORS
330
4D62
102
}
330
4D62
100
AcDbXrecord
280
     1
340
431E
  0
XRECORD
  5
4D63
102
{ACAD_REACTORS
330
4D62
102
}
330
4D62
100
AcDbXrecord
280
     1
340
431E
  0
LAYOUT
  5
4330
102
{ACAD_XDICTIONARY
360
4D8F
102
}
102
{ACAD_REACTORS
330
4323
102
}
330
4323
100
AcDbPlotSettings
  1

  2
Microsoft Office Document Image Writer
  4

  6

 40
0.0
 41
0.0
 42
0.0
 43
0.0
 44
0.0
 45
0.0
 46
0.0
 47
0.0
 48
0.0
 49
0.0
140
0.0
141
0.0
142
1.0
143
1.0
 70
  1712
 72
     0
 73
     0
 74
     0
  7
yanxiu.ctb
 75
     0
147
1.0
148
0.0
149
0.0
100
AcDbLayout
  1
Model
 70
     1
 71
     0
 10
0.0
 20
0.0
 11
12.0
 21
9.0
 12
0.0
 22
0.0
 32
0.0
 14
0.0
 24
0.0
 34
0.0
 15
0.0
 25
0.0
 35
0.0
146
0.0
 13
0.0
 23
0.0
 33
0.0
 16
1.0
 26
0.0
 36
0.0
 17
0.0
 27
1.0
 37
0.0
 76
     0
330
432D
331
4331
  0
LAYOUT
  5
432C
102
{ACAD_XDICTIONARY
360
4D8D
102
}
102
{ACAD_REACTORS
330
4323
102
}
330
4323
100
AcDbPlotSettings
  1

  2
Microsoft Office Document Image Writer
  4

  6

 40
0.0
 41
0.0
 42
0.0
 43
0.0
 44
0.0
 45
0.0
 46
0.0
 47
0.0
 48
0.0
 49
0.0
140
0.0
141
0.0
142
1.0
143
1.0
 70
   688
 72
     0
 73
     0
 74
     5
  7
yanxiu.ctb
 75
    16
147
1.0
148
0.0
149
0.0
100
AcDbLayout
  1
布局1
 70
     1
 71
     1
 10
0.0
 20
0.0
 11
12.0
 21
9.0
 12
0.0
 22
0.0
 32
0.0
 14
1.000000000000000E+20
 24
1.000000000000000E+20
 34
1.000000000000000E+20
 15
-1.000000000000000E+20
 25
-1.000000000000000E+20
 35
-1.000000000000000E+20
146
0.0
 13
0.0
 23
0.0
 33
0.0
 16
1.0
 26
0.0
 36
0.0
 17
0.0
 27
1.0
 37
0.0
 76
     0
330
4329
  0
MATERIAL
  5
42D0
102
{ACAD_XDICTIONARY
360
42D1
102
}
102
{ACAD_REACTORS
330
42C7
102
}
330
42C7
100
AcDbMaterial
  1
ByBlock
 72
     0
 43
0.0208333333333333
 43
0.0
 43
0.0
 43
0.0
 43
0.0
 43
0.0208333333333333
 43
0.0
 43
0.0
 43
0.0
 43
0.0
 43
1.0
 43
0.0
 43
0.0
 43
0.0
 43
0.0
 43
1.0
 77
     0
 47
0.0208333333333333
 47
0.0
 47
0.0
 47
0.0
 47
0.0
 47
0.0208333333333333
 47
0.0
 47
0.0
 47
0.0
 47
0.0
 47
1.0
 47
0.0
 47
0.0
 47
0.0
 47
0.0
 47
1.0
171
     0
 49
0.0208333333333333
 49
0.0
 49
0.0
 49
0.0
 49
0.0
 49
0.0208333333333333
 49
0.0
 49
0.0
 49
0.0
 49
0.0
 49
1.0
 49
0.0
 49
0.0
 49
0.0
 49
0.0
 49
1.0
175
     0
142
0.0208333333333333
142
0.0
142
0.0
142
0.0
142
0.0
142
0.0208333333333333
142
0.0
142
0.0
142
0.0
142
0.0
142
1.0
142
0.0
142
0.0
142
0.0
142
0.0
142
1.0
179
     0
144
0.0208333333333333
144
0.0
144
0.0
144
0.0
144
0.0
144
0.0208333333333333
144
0.0
144
0.0
144
0.0
144
0.0
144
1.0
144
0.0
144
0.0
144
0.0
144
0.0
144
1.0
147
0.0208333333333333
147
0.0
147
0.0
147
0.0
147
0.0
147
0.0208333333333333
147
0.0
147
0.0
147
0.0
147
0.0
147
1.0
147
0.0
147
0.0
147
0.0
147
0.0
147
1.0
  0
MATERIAL
  5
42C8
102
{ACAD_XDICTIONARY
360
42C9
102
}
102
{ACAD_REACTORS
330
42C7
102
}
330
42C7
100
AcDbMaterial
  1
ByLayer
 72
     0
 43
0.0208333333333333
 43
0.0
 43
0.0
 43
0.0
 43
0.0
 43
0.0208333333333333
 43
0.0
 43
0.0
 43
0.0
 43
0.0
 43
1.0
 43
0.0
 43
0.0
 43
0.0
 43
0.0
 43
1.0
 77
     0
 47
0.0208333333333333
 47
0.0
 47
0.0
 47
0.0
 47
0.0
 47
0.0208333333333333
 47
0.0
 47
0.0
 47
0.0
 47
0.0
 47
1.0
 47
0.0
 47
0.0
 47
0.0
 47
0.0
 47
1.0
171
     0
 49
0.0208333333333333
 49
0.0
 49
0.0
 49
0.0
 49
0.0
 49
0.0208333333333333
 49
0.0
 49
0.0
 49
0.0
 49
0.0
 49
1.0
 49
0.0
 49
0.0
 49
0.0
 49
0.0
 49
1.0
175
     0
142
0.0208333333333333
142
0.0
142
0.0
142
0.0
142
0.0
142
0.0208333333333333
142
0.0
142
0.0
142
0.0
142
0.0
142
1.0
142
0.0
142
0.0
142
0.0
142
0.0
142
1.0
179
     0
144
0.0208333333333333
144
0.0
144
0.0
144
0.0
144
0.0
144
0.0208333333333333
144
0.0
144
0.0
144
0.0
144
0.0
144
1.0
144
0.0
144
0.0
144
0.0
144
0.0
144
1.0
147
0.0208333333333333
147
0.0
147
0.0
147
0.0
147
0.0
147
0.0208333333333333
147
0.0
147
0.0
147
0.0
147
0.0
147
1.0
147
0.0
147
0.0
147
0.0
147
0.0
147
1.0
  0
MATERIAL
  5
42D8
102
{ACAD_XDICTIONARY
360
42D9
102
}
102
{ACAD_REACTORS
330
42C7
102
}
330
42C7
100
AcDbMaterial
  1
Global
 72
     0
 43
0.0208333333333333
 43
0.0
 43
0.0
 43
0.0
 43
0.0
 43
0.0208333333333333
 43
0.0
 43
0.0
 43
0.0
 43
0.0
 43
1.0
 43
0.0
 43
0.0
 43
0.0
 43
0.0
 43
1.0
 77
     0
 47
0.0208333333333333
 47
0.0
 47
0.0
 47
0.0
 47
0.0
 47
0.0208333333333333
 47
0.0
 47
0.0
 47
0.0
 47
0.0
 47
1.0
 47
0.0
 47
0.0
 47
0.0
 47
0.0
 47
1.0
171
     0
 49
0.0208333333333333
 49
0.0
 49
0.0
 49
0.0
 49
0.0
 49
0.0208333333333333
 49
0.0
 49
0.0
 49
0.0
 49
0.0
 49
1.0
 49
0.0
 49
0.0
 49
0.0
 49
0.0
 49
1.0
175
     0
142
0.0208333333333333
142
0.0
142
0.0
142
0.0
142
0.0
142
0.0208333333333333
142
0.0
142
0.0
142
0.0
142
0.0
142
1.0
142
0.0
142
0.0
142
0.0
142
0.0
142
1.0
179
     0
144
0.0208333333333333
144
0.0
144
0.0
144
0.0
144
0.0
144
0.0208333333333333
144
0.0
144
0.0
144
0.0
144
0.0
144
1.0
144
0.0
144
0.0
144
0.0
144
0.0
144
1.0
147
0.0208333333333333
147
0.0
147
0.0
147
0.0
147
0.0
147
0.0208333333333333
147
0.0
147
0.0
147
0.0
147
0.0
147
1.0
147
0.0
147
0.0
147
0.0
147
0.0
147
1.0
  0
MLEADERSTYLE
  5
4328
102
{ACAD_REACTORS
330
4327
102
}
330
4327
100
AcDbMLeaderStyle
170
     2
171
     1
172
     0
 90
        2
 40
0.0
 41
0.0
173
     1
 91
-1056964608
340
431C
 92
       -2
290
     1
 42
0.09
291
     1
 43
0.36
  3
Standard
 44
0.18
300

342
4317
174
     1
178
     6
175
     1
176
     0
 93
-1056964608
 45
0.18
292
     0
297
     0
 46
0.18
 94
-1056964608
 47
1.0
 49
1.0
140
1.0
293
     1
141
0.0
294
     1
177
     0
142
1.0
295
     0
296
     0
143
0.125
1001
ACAD_MLEADERVER
1070
     2
  0
MLINESTYLE
  5
4321
102
{ACAD_REACTORS
330
4320
102
}
330
4320
100
AcDbMlineStyle
  2
STANDARD
 70
     0
  3

 62
   256
 51
90.0
 52
90.0
 71
     2
 49
0.5
 62
   256
  6
BYLAYER
 49
-0.5
 62
   256
  6
BYLAYER
  0
ACDBPLACEHOLDER
  5
42C6
102
{ACAD_REACTORS
330
42C5
102
}
330
42C5
  0
SCALE
  5
42F5
102
{ACAD_REACTORS
330
42F4
102
}
330
42F4
100
AcDbScale
 70
     0
300
1:1
140
1.0
141
1.0
290
     1
  0
SCALE
  5
42F6
102
{ACAD_REACTORS
330
42F4
102
}
330
42F4
100
AcDbScale
 70
     0
300
1:2
140
1.0
141
2.0
290
     0
  0
SCALE
  5
42F7
102
{ACAD_REACTORS
330
42F4
102
}
330
42F4
100
AcDbScale
 70
     0
300
1:4
140
1.0
141
4.0
290
     0
  0
SCALE
  5
42F8
102
{ACAD_REACTORS
330
42F4
102
}
330
42F4
100
AcDbScale
 70
     0
300
1:5
140
1.0
141
5.0
290
     0
  0
SCALE
  5
42F9
102
{ACAD_REACTORS
330
42F4
102
}
330
42F4
100
AcDbScale
 70
     0
300
1:8
140
1.0
141
8.0
290
     0
  0
SCALE
  5
42FA
102
{ACAD_REACTORS
330
42F4
102
}
330
42F4
100
AcDbScale
 70
     0
300
1:10
140
1.0
141
10.0
290
     0
  0
SCALE
  5
42FB
102
{ACAD_REACTORS
330
42F4
102
}
330
42F4
100
AcDbScale
 70
     0
300
1:16
140
1.0
141
16.0
290
     0
  0
SCALE
  5
42FC
102
{ACAD_REACTORS
330
42F4
102
}
330
42F4
100
AcDbScale
 70
     0
300
1:20
140
1.0
141
20.0
290
     0
  0
SCALE
  5
42FD
102
{ACAD_REACTORS
330
42F4
102
}
330
42F4
100
AcDbScale
 70
     0
300
1:30
140
1.0
141
30.0
290
     0
  0
SCALE
  5
42FE
102
{ACAD_REACTORS
330
42F4
102
}
330
42F4
100
AcDbScale
 70
     0
300
1:40
140
1.0
141
40.0
290
     0
  0
SCALE
  5
42FF
102
{ACAD_REACTORS
330
42F4
102
}
330
42F4
100
AcDbScale
 70
     0
300
1:50
140
1.0
141
50.0
290
     0
  0
SCALE
  5
4300
102
{ACAD_REACTORS
330
42F4
102
}
330
42F4
100
AcDbScale
 70
     0
300
1:100
140
1.0
141
100.0
290
     0
  0
SCALE
  5
4301
102
{ACAD_REACTORS
330
42F4
102
}
330
42F4
100
AcDbScale
 70
     0
300
2:1
140
2.0
141
1.0
290
     0
  0
SCALE
  5
4302
102
{ACAD_REACTORS
330
42F4
102
}
330
42F4
100
AcDbScale
 70
     0
300
4:1
140
4.0
141
1.0
290
     0
  0
SCALE
  5
4303
102
{ACAD_REACTORS
330
42F4
102
}
330
42F4
100
AcDbScale
 70
     0
300
8:1
140
8.0
141
1.0
290
     0
  0
SCALE
  5
4304
102
{ACAD_REACTORS
330
42F4
102
}
330
42F4
100
AcDbScale
 70
     0
300
10:1
140
10.0
141
1.0
290
     0
  0
SCALE
  5
4305
102
{ACAD_REACTORS
330
42F4
102
}
330
42F4
100
AcDbScale
 70
     0
300
100:1
140
100.0
141
1.0
290
     0
  0
SCALE
  5
4306
102
{ACAD_REACTORS
330
42F4
102
}
330
42F4
100
AcDbScale
 70
     0
300
1/128" = 1'-0"
140
0.0078125
141
12.0
290
     0
  0
SCALE
  5
4307
102
{ACAD_REACTORS
330
42F4
102
}
330
42F4
100
AcDbScale
 70
     0
300
1/64" = 1'-0"
140
0.015625
141
12.0
290
     0
  0
SCALE
  5
4308
102
{ACAD_REACTORS
330
42F4
102
}
330
42F4
100
AcDbScale
 70
     0
300
1/32" = 1'-0"
140
0.03125
141
12.0
290
     0
  0
SCALE
  5
4309
102
{ACAD_REACTORS
330
42F4
102
}
330
42F4
100
AcDbScale
 70
     0
300
1/16" = 1'-0"
140
0.0625
141
12.0
290
     0
  0
SCALE
  5
430A
102
{ACAD_REACTORS
330
42F4
102
}
330
42F4
100
AcDbScale
 70
     0
300
3/32" = 1'-0"
140
0.09375
141
12.0
290
     0
  0
SCALE
  5
430B
102
{ACAD_REACTORS
330
42F4
102
}
330
42F4
100
AcDbScale
 70
     0
300
1/8" = 1'-0"
140
0.125
141
12.0
290
     0
  0
SCALE
  5
430C
102
{ACAD_REACTORS
330
42F4
102
}
330
42F4
100
AcDbScale
 70
     0
300
3/16" = 1'-0"
140
0.1875
141
12.0
290
     0
  0
SCALE
  5
430D
102
{ACAD_REACTORS
330
42F4
102
}
330
42F4
100
AcDbScale
 70
     0
300
1/4" = 1'-0"
140
0.25
141
12.0
290
     0
  0
SCALE
  5
430E
102
{ACAD_REACTORS
330
42F4
102
}
330
42F4
100
AcDbScale
 70
     0
300
3/8" = 1'-0"
140
0.375
141
12.0
290
     0
  0
SCALE
  5
430F
102
{ACAD_REACTORS
330
42F4
102
}
330
42F4
100
AcDbScale
 70
     0
300
1/2" = 1'-0"
140
0.5
141
12.0
290
     0
  0
SCALE
  5
4310
102
{ACAD_REACTORS
330
42F4
102
}
330
42F4
100
AcDbScale
 70
     0
300
3/4" = 1'-0"
140
0.75
141
12.0
290
     0
  0
SCALE
  5
4311
102
{ACAD_REACTORS
330
42F4
102
}
330
42F4
100
AcDbScale
 70
     0
300
1" = 1'-0"
140
1.0
141
12.0
290
     0
  0
SCALE
  5
4312
102
{ACAD_REACTORS
330
42F4
102
}
330
42F4
100
AcDbScale
 70
     0
300
1-1/2" = 1'-0"
140
1.5
141
12.0
290
     0
  0
SCALE
  5
4313
102
{ACAD_REACTORS
330
42F4
102
}
330
42F4
100
AcDbScale
 70
     0
300
3" = 1'-0"
140
3.0
141
12.0
290
     0
  0
SCALE
  5
4314
102
{ACAD_REACTORS
330
42F4
102
}
330
42F4
100
AcDbScale
 70
     0
300
6" = 1'-0"
140
6.0
141
12.0
290
     0
  0
SCALE
  5
4315
102
{ACAD_REACTORS
330
42F4
102
}
330
42F4
100
AcDbScale
 70
     0
300
1'-0" = 1'-0"
140
12.0
141
12.0
290
     0
  0
TABLESTYLE
  5
4326
102
{ACAD_XDICTIONARY
360
49FA
102
}
102
{ACAD_REACTORS
330
4325
102
}
330
4325
100
AcDbTableStyle
  3
Standard
 70
     0
 71
     0
 40
0.06
 41
0.06
280
     0
281
     0
  7
STANDARD
140
0.18
170
     2
 62
     0
 63
     7
283
     0
274
    -2
284
     1
 64
     0
275
    -2
285
     1
 65
     0
276
    -2
286
     1
 66
     0
277
    -2
287
     1
 67
     0
278
    -2
288
     1
 68
     0
279
    -2
289
     1
 69
     0
  7
STANDARD
140
0.25
170
     5
 62
     0
 63
     7
283
     0
274
    -2
284
     1
 64
     0
275
    -2
285
     1
 65
     0
276
    -2
286
     1
 66
     0
277
    -2
287
     1
 67
     0
278
    -2
288
     1
 68
     0
279
    -2
289
     1
 69
     0
  7
STANDARD
140
0.18
170
     5
 62
     0
 63
     7
283
     0
274
    -2
284
     1
 64
     0
275
    -2
285
     1
 65
     0
276
    -2
286
     1
 66
     0
277
    -2
287
     1
 67
     0
278
    -2
288
     1
 68
     0
279
    -2
289
     1
 69
     0
  0
VISUALSTYLE
  5
42E6
102
{ACAD_XDICTIONARY
360
4D70
102
}
102
{ACAD_REACTORS
330
42E0
102
}
330
42E0
100
AcDbVisualStyle
  2

 70
     4
 71
     0
 72
     2
 73
     0
 90
        0
 40
-0.6
 41
-30.0
 62
     5
 63
     7
 74
     1
 91
        4
 64
     7
 65
   257
 75
     1
175
     1
 42
1.0
 92
        0
 66
   257
 43
1.0
 76
     1
 77
     6
 78
     2
 67
     7
 79
     5
170
     0
171
     0
290
     0
174
     0
 93
        1
 44
0.0
173
     0
291
     0
 45
0.0
1001
ACAD
1000
AcDbSavedByObjectVersion
1070
     0
  0
VISUALSTYLE
  5
42E8
102
{ACAD_XDICTIONARY
360
4D74
102
}
102
{ACAD_REACTORS
330
42E0
102
}
330
42E0
100
AcDbVisualStyle
  2

 70
     6
 71
     1
 72
     2
 73
     2
 90
        0
 40
-0.6
 41
-30.0
 62
     5
 63
     7
 74
     2
 91
        2
 64
     7
 65
   257
 75
     2
175
     1
 42
179.0
 92
        0
 66
   257
 43
1.0
 76
     1
 77
     6
 78
     2
 67
     7
 79
     3
170
     0
171
     0
290
     0
174
     0
 93
        1
 44
0.0
173
     0
291
     0
 45
0.0
1001
ACAD
1000
AcDbSavedByObjectVersion
1070
     0
  0
VISUALSTYLE
  5
42E7
102
{ACAD_XDICTIONARY
360
4D72
102
}
102
{ACAD_REACTORS
330
42E0
102
}
330
42E0
100
AcDbVisualStyle
  2

 70
     5
 71
     0
 72
     2
 73
     0
 90
        0
 40
-0.6
 41
-30.0
 62
     5
 63
     7
 74
     1
 91
        4
 64
     7
 65
   257
 75
     1
175
     1
 42
1.0
 92
        0
 66
   257
 43
1.0
 76
     1
 77
     6
 78
     2
 67
     7
 79
     5
170
     0
171
     0
290
     0
174
     0
 93
        1
 44
0.0
173
     0
291
     0
 45
0.0
1001
ACAD
1000
AcDbSavedByObjectVersion
1070
     0
  0
VISUALSTYLE
  5
42E5
102
{ACAD_XDICTIONARY
360
4D6E
102
}
102
{ACAD_REACTORS
330
42E0
102
}
330
42E0
100
AcDbVisualStyle
  2

 70
     7
 71
     1
 72
     0
 73
     1
 90
        0
 40
-0.6
 41
-30.0
 62
     5
 63
     7
 74
     0
 91
        4
 64
     7
 65
   257
 75
     1
175
     1
 42
1.0
 92
        8
 66
     7
 43
1.0
 76
     1
 77
     6
 78
     2
 67
     7
 79
     5
170
     0
171
     0
290
     0
174
     0
 93
        1
 44
0.0
173
     0
291
     1
 45
0.0
1001
ACAD
1000
AcDbSavedByObjectVersion
1070
     0
  0
VISUALSTYLE
  5
42EC
102
{ACAD_XDICTIONARY
360
4D7C
102
}
102
{ACAD_REACTORS
330
42E0
102
}
330
42E0
100
AcDbVisualStyle
  2

 70
    12
 71
     2
 72
     2
 73
     0
 90
        0
 40
-0.6
 41
-30.0
 62
     5
 63
     7
 74
     1
 91
        4
 64
     7
 65
   257
 75
     1
175
     1
 42
1.0
 92
        8
 66
     7
 43
1.0
 76
     1
 77
     6
 78
     2
 67
     7
 79
     5
170
     0
171
     0
290
     0
174
     0
 93
        1
 44
50.0
173
     0
291
     1
 45
0.0
1001
ACAD
1000
AcDbSavedByObjectVersion
1070
     0
  0
VISUALSTYLE
  5
42F0
102
{ACAD_XDICTIONARY
360
4D84
102
}
102
{ACAD_REACTORS
330
42E0
102
}
330
42E0
100
AcDbVisualStyle
  2

 70
    16
 71
     2
 72
     2
 73
     3
 90
        0
 40
-0.6
 41
-30.0
 62
     5
 63
     8
 74
     1
 91
        4
 64
     7
 65
   257
 75
     1
175
     1
 42
1.0
 92
        8
 66
     8
 43
1.0
 76
     1
 77
     6
 78
     2
 67
     7
 79
     5
170
     0
171
     0
290
     0
174
     0
 93
        1
 44
0.0
173
     0
291
     1
 45
0.0
1001
ACAD
1000
AcDbSavedByObjectVersion
1070
     0
  0
VISUALSTYLE
  5
42E9
102
{ACAD_XDICTIONARY
360
4D76
102
}
102
{ACAD_REACTORS
330
42E0
102
}
330
42E0
100
AcDbVisualStyle
  2

 70
     9
 71
     3
 72
     2
 73
     0
 90
        0
 40
-0.6
 41
-30.0
 62
     5
 63
     7
 74
     2
 91
        2
 64
     7
 65
   257
 75
     1
175
     1
 42
179.0
 92
        8
 66
     7
 43
1.0
 76
     1
 77
     6
 78
     2
 67
     7
 79
     3
170
     0
171
     0
290
     0
174
     0
 93
        1
 44
0.0
173
     0
291
     0
 45
0.0
1001
ACAD
1000
AcDbSavedByObjectVersion
1070
     0
  0
VISUALSTYLE
  5
42EB
102
{ACAD_XDICTIONARY
360
4D7A
102
}
102
{ACAD_REACTORS
330
42E0
102
}
330
42E0
100
AcDbVisualStyle
  2

 70
    11
 71
     2
 72
     2
 73
     0
 90
        0
 40
-0.6
 41
-30.0
 62
     5
 63
     7
 74
     1
 91
        4
 64
     7
 65
   257
 75
     1
175
     1
 42
1.0
 92
        8
 66
     7
 43
1.0
 76
     1
 77
     6
 78
     2
 67
     7
 79
     5
170
     0
171
     0
290
     0
174
     0
 93
        1
 44
-50.0
173
     0
291
     1
 45
0.0
1001
ACAD
1000
AcDbSavedByObjectVersion
1070
     0
  0
VISUALSTYLE
  5
42F3
102
{ACAD_XDICTIONARY
360
4D8A
102
}
102
{ACAD_REACTORS
330
42E0
102
}
330
42E0
100
AcDbVisualStyle
  2

 70
    22
 71
     2
 72
     2
 73
     0
 90
        0
 40
-0.6
 41
-30.0
 62
     5
 63
     7
 74
     1
 91
        4
 64
     7
 65
   257
 75
     1
175
     1
 42
1.0
 92
        8
 66
     7
 43
1.0
 76
     1
 77
     6
 78
     2
 67
     7
 79
     5
170
     0
171
     0
290
     0
174
     0
 93
        1
 44
0.0
173
     0
291
     1
 45
0.0
1001
ACAD
1000
AcDbSavedByObjectVersion
1070
     0
  0
VISUALSTYLE
  5
42EF
102
{ACAD_XDICTIONARY
360
4D82
102
}
102
{ACAD_REACTORS
330
42E0
102
}
330
42E0
100
AcDbVisualStyle
  2

 70
    15
 71
     2
 72
     2
 73
     0
 90
        0
 40
-0.6
 41
-30.0
 62
     5
 63
     7
 74
     1
 91
        4
 64
     7
 65
   257
 75
     1
175
     1
 42
1.0
 92
        8
 66
     7
 43
1.0
 76
     1
 77
     6
 78
     2
 67
     7
 79
     5
170
     0
171
     0
290
     0
174
     0
 93
        1
 44
0.0
173
     0
291
     1
 45
0.0
1001
ACAD
1000
AcDbSavedByObjectVersion
1070
     0
  0
VISUALSTYLE
  5
42E1
102
{ACAD_XDICTIONARY
360
4D66
102
}
102
{ACAD_REACTORS
330
42E0
102
}
330
42E0
100
AcDbVisualStyle
  2

 70
     0
 71
     2
 72
     1
 73
     1
 90
        2
 40
-0.6
 41
30.0
 62
     5
 63
     7
 74
     0
 91
        4
 64
     7
 65
   257
 75
     1
175
     1
 42
1.0
 92
        8
 66
     7
 43
1.0
 76
     1
 77
     6
 78
     2
 67
     7
 79
     5
170
     0
171
     0
290
     0
174
     0
 93
       13
 44
0.0
173
     0
291
     1
 45
0.0
1001
ACAD
1000
AcDbSavedByObjectVersion
1070
     0
  0
VISUALSTYLE
  5
42E2
102
{ACAD_XDICTIONARY
360
4D68
102
}
102
{ACAD_REACTORS
330
42E0
102
}
330
42E0
100
AcDbVisualStyle
  2

 70
     1
 71
     2
 72
     1
 73
     1
 90
        2
 40
-0.6
 41
30.0
 62
     5
 63
     7
 74
     1
 91
        4
 64
     7
 65
   257
 75
     1
175
     1
 42
1.0
 92
        0
 66
   257
 43
1.0
 76
     1
 77
     6
 78
     2
 67
     7
 79
     5
170
     0
171
     0
290
     0
174
     0
 93
       13
 44
0.0
173
     0
291
     1
 45
0.0
1001
ACAD
1000
AcDbSavedByObjectVersion
1070
     0
  0
VISUALSTYLE
  5
42E3
102
{ACAD_XDICTIONARY
360
4D6A
102
}
102
{ACAD_REACTORS
330
42E0
102
}
330
42E0
100
AcDbVisualStyle
  2

 70
     2
 71
     2
 72
     2
 73
     1
 90
        2
 40
-0.6
 41
30.0
 62
     5
 63
     7
 74
     0
 91
        4
 64
     7
 65
   257
 75
     1
175
     1
 42
1.0
 92
        0
 66
     7
 43
1.0
 76
     1
 77
     6
 78
     2
 67
     7
 79
     5
170
     0
171
     0
290
     0
174
     0
 93
       13
 44
0.0
173
     0
291
     1
 45
0.0
1001
ACAD
1000
AcDbSavedByObjectVersion
1070
     0
  0
VISUALSTYLE
  5
42E4
102
{ACAD_XDICTIONARY
360
4D6C
102
}
102
{ACAD_REACTORS
330
42E0
102
}
330
42E0
100
AcDbVisualStyle
  2

 70
     3
 71
     2
 72
     2
 73
     1
 90
        2
 40
-0.6
 41
30.0
 62
     5
 63
     7
 74
     1
 91
        4
 64
     7
 65
   257
 75
     1
175
     1
 42
1.0
 92
        0
 66
   257
 43
1.0
 76
     1
 77
     6
 78
     2
 67
     7
 79
     5
170
     0
171
     0
290
     0
174
     0
 93
       13
 44
0.0
173
     0
291
     1
 45
0.0
1001
ACAD
1000
AcDbSavedByObjectVersion
1070
     0
  0
VISUALSTYLE
  5
42F1
102
{ACAD_XDICTIONARY
360
4D86
102
}
102
{ACAD_REACTORS
330
42E0
102
}
330
42E0
100
AcDbVisualStyle
  2

 70
    20
 71
     2
 72
     2
 73
     0
 90
        0
 40
-0.6
 41
-30.0
 62
     5
 63
     7
 74
     1
 91
        4
 64
     7
 65
   257
 75
     1
175
     1
 42
1.0
 92
       10
 66
     7
 43
1.0
 76
     1
 77
     6
 78
     2
 67
     7
 79
     5
170
     0
171
     0
290
     0
174
     0
 93
        1
 44
0.0
173
     0
291
     1
 45
0.0
1001
ACAD
1000
AcDbSavedByObjectVersion
1070
     0
  0
VISUALSTYLE
  5
42EE
102
{ACAD_XDICTIONARY
360
4D80
102
}
102
{ACAD_REACTORS
330
42E0
102
}
330
42E0
100
AcDbVisualStyle
  2

 70
    14
 71
     2
 72
     2
 73
     0
 90
        0
 40
-0.6
 41
-30.0
 62
     5
 63
     7
 74
     1
 91
        4
 64
     7
 65
   257
 75
     7
175
     7
 42
1.0
 92
        8
 66
     7
 43
1.0
 76
     1
 77
     6
 78
     2
 67
     7
 79
     5
170
     0
171
     0
290
     0
174
     0
 93
        1
 44
0.0
173
     0
291
     1
 45
0.0
1001
ACAD
1000
AcDbSavedByObjectVersion
1070
     0
  0
VISUALSTYLE
  5
42F2
102
{ACAD_XDICTIONARY
360
4D88
102
}
102
{ACAD_REACTORS
330
42E0
102
}
330
42E0
100
AcDbVisualStyle
  2

 70
    21
 71
     2
 72
     2
 73
     0
 90
        0
 40
-0.6
 41
-30.0
 62
     5
 63
     7
 74
     1
 91
        4
 64
     7
 65
   257
 75
     1
175
     1
 42
1.0
 92
        9
 66
     7
 43
1.0
 76
     1
 77
     6
 78
     2
 67
     7
 79
     5
170
     0
171
     0
290
     0
174
     0
 93
        1
 44
0.0
173
     0
291
     1
 45
0.0
1001
ACAD
1000
AcDbSavedByObjectVersion
1070
     0
  0
VISUALSTYLE
  5
42EA
102
{ACAD_XDICTIONARY
360
4D78
102
}
102
{ACAD_REACTORS
330
42E0
102
}
330
42E0
100
AcDbVisualStyle
  2

 70
     8
 71
     2
 72
     2
 73
     0
 90
        0
 40
-0.6
 41
-30.0
 62
     5
 63
     7
 74
     1
 91
        0
 64
     7
 65
   257
 75
     1
175
     1
 42
1.0
 92
        8
 66
     8
 43
1.0
 76
     1
 77
     6
 78
     2
 67
     7
 79
     5
170
     0
171
     0
290
     0
174
     0
 93
       13
 44
0.0
173
     0
291
     0
 45
0.0
1001
ACAD
1000
AcDbSavedByObjectVersion
1070
     0
  0
VISUALSTYLE
  5
42ED
102
{ACAD_XDICTIONARY
360
4D7E
102
}
102
{ACAD_REACTORS
330
42E0
102
}
330
42E0
100
AcDbVisualStyle
  2

 70
    13
 71
     2
 72
     2
 73
     0
 90
        0
 40
-0.6
 41
-30.0
 62
     5
 63
     7
 74
     1
 91
        4
 64
     7
 65
   257
 75
     1
175
     1
 42
1.0
 92
       12
 66
     7
 43
1.0
 76
     1
 77
     6
 78
     2
 67
     7
 79
     5
170
     0
171
     0
290
     0
174
     0
 93
        1
 44
0.0
173
     0
291
     1
 45
0.0
1001
ACAD
1000
AcDbSavedByObjectVersion
1070
     0
  0
DICTIONARYVAR
  5
49F5
102
{ACAD_REACTORS
330
49F2
102
}
330
49F2
100
DictionaryVariables
280
     0
  1
1:1
  0
DICTIONARYVAR
  5
49F4
102
{ACAD_REACTORS
330
49F2
102
}
330
49F2
100
DictionaryVariables
280
     0
  1
STANDARD
  0
DICTIONARYVAR
  5
49F3
102
{ACAD_REACTORS
330
49F2
102
}
330
49F2
100
DictionaryVariables
280
     0
  1
STANDARD
  0
DICTIONARYVAR
  5
49F8
102
{ACAD_REACTORS
330
49F2
102
}
330
49F2
100
DictionaryVariables
280
     0
  1
1
  0
DICTIONARYVAR
  5
49F7
102
{ACAD_REACTORS
330
49F2
102
}
330
49F2
100
DictionaryVariables
280
     0
  1
0
  0
DICTIONARYVAR
  5
49F6
102
{ACAD_REACTORS
330
49F2
102
}
330
49F2
100
DictionaryVariables
280
     0
  1
127
  0
DICTIONARYVAR
  5
4D5E
102
{ACAD_REACTORS
330
49F2
102
}
330
49F2
100
DictionaryVariables
280
     0
  1
2
  0
DICTIONARY
  5
44CA
102
{ACAD_REACTORS
330
44C0
102
}
330
44C0
100
AcDbDictionary
281
     1
  0
VLO-VL
  5
44E5
102
{ACAD_REACTORS
330
44E4
102
}
330
44E4
100
vlo_VL
 90
   -64512
 91
       12
 92
        1
 40
2.5
300
(&VLO-R . 0)
  0
DICTIONARY
  5
4D8F
330
4330
100
AcDbDictionary
280
     1
281
     1
  3
ACAD_XREC_ROUNDTRIP
360
4D90
  0
DICTIONARY
  5
4D8D
330
432C
100
AcDbDictionary
280
     1
281
     1
  3
ACAD_XREC_ROUNDTRIP
360
4D8E
  0
DICTIONARY
  5
42D1
330
42D0
100
AcDbDictionary
280
     1
281
     1
  3
ACAD_XREC_ROUNDTRIP
360
4A03
  3
BUMPTILE
360
42D3
  3
DIFFUSETILE
360
42D2
  3
OPACITYTILE
360
42D6
  3
REFLECTIONTILE
360
42D5
  3
REFRACTIONTILE
360
42D7
  3
SPECULARTILE
360
42D4
  0
DICTIONARY
  5
42C9
330
42C8
100
AcDbDictionary
280
     1
281
     1
  3
ACAD_XREC_ROUNDTRIP
360
4A02
  3
BUMPTILE
360
42CB
  3
DIFFUSETILE
360
42CA
  3
OPACITYTILE
360
42CE
  3
REFLECTIONTILE
360
42CD
  3
REFRACTIONTILE
360
42CF
  3
SPECULARTILE
360
42CC
  0
DICTIONARY
  5
42D9
330
42D8
100
AcDbDictionary
280
     1
281
     1
  3
ACAD_XREC_ROUNDTRIP
360
4A04
  3
BUMPTILE
360
42DB
  3
DIFFUSETILE
360
42DA
  3
OPACITYTILE
360
42DE
  3
REFLECTIONTILE
360
42DD
  3
REFRACTIONTILE
360
42DF
  3
SPECULARTILE
360
42DC
  0
DICTIONARY
  5
49FA
330
4326
100
AcDbDictionary
280
     1
281
     1
  3
ACAD_ROUNDTRIP_2008_TABLESTYLE_CELLSTYLEMAP
360
4D5F
  3
ACAD_XREC_ROUNDTRIP
360
4D8C
  0
DICTIONARY
  5
4D70
330
42E6
100
AcDbDictionary
280
     1
281
     1
  3
ACAD_XREC_ROUNDTRIP
360
4D71
  0
DICTIONARY
  5
4D74
330
42E8
100
AcDbDictionary
280
     1
281
     1
  3
ACAD_XREC_ROUNDTRIP
360
4D75
  0
DICTIONARY
  5
4D72
330
42E7
100
AcDbDictionary
280
     1
281
     1
  3
ACAD_XREC_ROUNDTRIP
360
4D73
  0
DICTIONARY
  5
4D6E
330
42E5
100
AcDbDictionary
280
     1
281
     1
  3
ACAD_XREC_ROUNDTRIP
360
4D6F
  0
DICTIONARY
  5
4D7C
330
42EC
100
AcDbDictionary
280
     1
281
     1
  3
ACAD_XREC_ROUNDTRIP
360
4D7D
  0
DICTIONARY
  5
4D84
330
42F0
100
AcDbDictionary
280
     1
281
     1
  3
ACAD_XREC_ROUNDTRIP
360
4D85
  0
DICTIONARY
  5
4D76
330
42E9
100
AcDbDictionary
280
     1
281
     1
  3
ACAD_XREC_ROUNDTRIP
360
4D77
  0
DICTIONARY
  5
4D7A
330
42EB
100
AcDbDictionary
280
     1
281
     1
  3
ACAD_XREC_ROUNDTRIP
360
4D7B
  0
DICTIONARY
  5
4D8A
330
42F3
100
AcDbDictionary
280
     1
281
     1
  3
ACAD_XREC_ROUNDTRIP
360
4D8B
  0
DICTIONARY
  5
4D82
330
42EF
100
AcDbDictionary
280
     1
281
     1
  3
ACAD_XREC_ROUNDTRIP
360
4D83
  0
DICTIONARY
  5
4D66
330
42E1
100
AcDbDictionary
280
     1
281
     1
  3
ACAD_XREC_ROUNDTRIP
360
4D67
  0
DICTIONARY
  5
4D68
330
42E2
100
AcDbDictionary
280
     1
281
     1
  3
ACAD_XREC_ROUNDTRIP
360
4D69
  0
DICTIONARY
  5
4D6A
330
42E3
100
AcDbDictionary
280
     1
281
     1
  3
ACAD_XREC_ROUNDTRIP
360
4D6B
  0
DICTIONARY
  5
4D6C
330
42E4
100
AcDbDictionary
280
     1
281
     1
  3
ACAD_XREC_ROUNDTRIP
360
4D6D
  0
DICTIONARY
  5
4D86
330
42F1
100
AcDbDictionary
280
     1
281
     1
  3
ACAD_XREC_ROUNDTRIP
360
4D87
  0
DICTIONARY
  5
4D80
330
42EE
100
AcDbDictionary
280
     1
281
     1
  3
ACAD_XREC_ROUNDTRIP
360
4D81
  0
DICTIONARY
  5
4D88
330
42F2
100
AcDbDictionary
280
     1
281
     1
  3
ACAD_XREC_ROUNDTRIP
360
4D89
  0
DICTIONARY
  5
4D78
330
42EA
100
AcDbDictionary
280
     1
281
     1
  3
ACAD_XREC_ROUNDTRIP
360
4D79
  0
DICTIONARY
  5
4D7E
330
42ED
100
AcDbDictionary
280
     1
281
     1
  3
ACAD_XREC_ROUNDTRIP
360
4D7F
  0
XRECORD
  5
4D90
102
{ACAD_REACTORS
330
4D8F
102
}
330
4D8F
100
AcDbXrecord
280
     1
102
SHADEPLOT
 70
     0
102
SHADEPLOTRESLEVEL
 70
     2
102
SHADEPLOTCUSTOMDPI
 70
   300
  0
XRECORD
  5
4D8E
102
{ACAD_REACTORS
330
4D8D
102
}
330
4D8D
100
AcDbXrecord
280
     1
102
SHADEPLOT
 70
     0
102
SHADEPLOTRESLEVEL
 70
     2
102
SHADEPLOTCUSTOMDPI
 70
   300
  0
XRECORD
  5
4A03
102
{ACAD_REACTORS
330
42D1
102
}
330
42D1
100
AcDbXrecord
280
     1
102
MATERIAL
148
0.0
149
0.0
149
0.0
 93
        0
 94
      127
282
     0
 72
     0
 77
     0
171
     0
175
     0
179
     0
273
     0
  0
XRECORD
  5
42D3
102
{ACAD_REACTORS
330
42D1
102
}
330
42D1
100
AcDbXrecord
280
     1
270
     1
271
     1
  0
XRECORD
  5
42D2
102
{ACAD_REACTORS
330
42D1
102
}
330
42D1
100
AcDbXrecord
280
     1
270
     1
271
     1
  0
XRECORD
  5
42D6
102
{ACAD_REACTORS
330
42D1
102
}
330
42D1
100
AcDbXrecord
280
     1
270
     1
271
     1
  0
XRECORD
  5
42D5
102
{ACAD_REACTORS
330
42D1
102
}
330
42D1
100
AcDbXrecord
280
     1
270
     1
271
     1
  0
XRECORD
  5
42D7
102
{ACAD_REACTORS
330
42D1
102
}
330
42D1
100
AcDbXrecord
280
     1
270
     1
271
     1
  0
XRECORD
  5
42D4
102
{ACAD_REACTORS
330
42D1
102
}
330
42D1
100
AcDbXrecord
280
     1
270
     1
271
     1
  0
XRECORD
  5
4A02
102
{ACAD_REACTORS
330
42C9
102
}
330
42C9
100
AcDbXrecord
280
     1
102
MATERIAL
148
0.0
149
0.0
149
0.0
 93
        0
 94
      127
282
     0
 72
     0
 77
     0
171
     0
175
     0
179
     0
273
     0
  0
XRECORD
  5
42CB
102
{ACAD_REACTORS
330
42C9
102
}
330
42C9
100
AcDbXrecord
280
     1
270
     1
271
     1
  0
XRECORD
  5
42CA
102
{ACAD_REACTORS
330
42C9
102
}
330
42C9
100
AcDbXrecord
280
     1
270
     1
271
     1
  0
XRECORD
  5
42CE
102
{ACAD_REACTORS
330
42C9
102
}
330
42C9
100
AcDbXrecord
280
     1
270
     1
271
     1
  0
XRECORD
  5
42CD
102
{ACAD_REACTORS
330
42C9
102
}
330
42C9
100
AcDbXrecord
280
     1
270
     1
271
     1
  0
XRECORD
  5
42CF
102
{ACAD_REACTORS
330
42C9
102
}
330
42C9
100
AcDbXrecord
280
     1
270
     1
271
     1
  0
XRECORD
  5
42CC
102
{ACAD_REACTORS
330
42C9
102
}
330
42C9
100
AcDbXrecord
280
     1
270
     1
271
     1
  0
XRECORD
  5
4A04
102
{ACAD_REACTORS
330
42D9
102
}
330
42D9
100
AcDbXrecord
280
     1
102
MATERIAL
148
0.0
149
0.0
149
0.0
 93
        0
 94
      127
282
     0
 72
     0
 77
     0
171
     0
175
     0
179
     0
273
     0
  0
XRECORD
  5
42DB
102
{ACAD_REACTORS
330
42D9
102
}
330
42D9
100
AcDbXrecord
280
     1
270
     1
271
     1
  0
XRECORD
  5
42DA
102
{ACAD_REACTORS
330
42D9
102
}
330
42D9
100
AcDbXrecord
280
     1
270
     1
271
     1
  0
XRECORD
  5
42DE
102
{ACAD_REACTORS
330
42D9
102
}
330
42D9
100
AcDbXrecord
280
     1
270
     1
271
     1
  0
XRECORD
  5
42DD
102
{ACAD_REACTORS
330
42D9
102
}
330
42D9
100
AcDbXrecord
280
     1
270
     1
271
     1
  0
XRECORD
  5
42DF
102
{ACAD_REACTORS
330
42D9
102
}
330
42D9
100
AcDbXrecord
280
     1
270
     1
271
     1
  0
XRECORD
  5
42DC
102
{ACAD_REACTORS
330
42D9
102
}
330
42D9
100
AcDbXrecord
280
     1
270
     1
271
     1
  0
CELLSTYLEMAP
  5
4D5F
102
{ACAD_REACTORS
330
49FA
102
}
330
49FA
100
AcDbCellStyleMap
 90
        3
300
CELLSTYLE
  1
TABLEFORMAT_BEGIN
 90
        5
170
     1
 91
        0
 92
    32768
 62
   257
 93
        1
300
CONTENTFORMAT
  1
CONTENTFORMAT_BEGIN
 90
        0
 91
        0
 92
      512
 93
        0
300

 40
0.0
140
1.0
 94
        5
 62
     0
340
4317
144
0.25
309
CONTENTFORMAT_END
171
     1
301
MARGIN
  1
CELLMARGIN_BEGIN
 40
0.06
 40
0.06
 40
0.06
 40
0.06
 40
0.18
 40
0.18
309
CELLMARGIN_END
 94
        6
 95
        1
302
GRIDFORMAT
  1
GRIDFORMAT_BEGIN
 90
        0
 91
        1
 62
     0
 92
       -2
340
0
 93
        0
 40
0.045
309
GRIDFORMAT_END
 95
        2
302
GRIDFORMAT
  1
GRIDFORMAT_BEGIN
 90
        0
 91
        1
 62
     0
 92
       -2
340
0
 93
        0
 40
0.045
309
GRIDFORMAT_END
 95
        4
302
GRIDFORMAT
  1
GRIDFORMAT_BEGIN
 90
        0
 91
        1
 62
     0
 92
       -2
340
0
 93
        0
 40
0.045
309
GRIDFORMAT_END
 95
        8
302
GRIDFORMAT
  1
GRIDFORMAT_BEGIN
 90
        0
 91
        1
 62
     0
 92
       -2
340
0
 93
        0
 40
0.045
309
GRIDFORMAT_END
 95
       16
302
GRIDFORMAT
  1
GRIDFORMAT_BEGIN
 90
        0
 91
        1
 62
     0
 92
       -2
340
0
 93
        0
 40
0.045
309
GRIDFORMAT_END
 95
       32
302
GRIDFORMAT
  1
GRIDFORMAT_BEGIN
 90
        0
 91
        1
 62
     0
 92
       -2
340
0
 93
        0
 40
0.045
309
GRIDFORMAT_END
309
TABLEFORMAT_END
  1
CELLSTYLE_BEGIN
 90
        1
 91
        1
300
_TITLE
309
CELLSTYLE_END
300
CELLSTYLE
  1
TABLEFORMAT_BEGIN
 90
        5
170
     1
 91
        0
 92
        0
 62
   257
 93
        1
300
CONTENTFORMAT
  1
CONTENTFORMAT_BEGIN
 90
        0
 91
        0
 92
      512
 93
        0
300

 40
0.0
140
1.0
 94
        5
 62
     0
340
4317
144
0.18
309
CONTENTFORMAT_END
171
     1
301
MARGIN
  1
CELLMARGIN_BEGIN
 40
0.06
 40
0.06
 40
0.06
 40
0.06
 40
0.18
 40
0.18
309
CELLMARGIN_END
 94
        6
 95
        1
302
GRIDFORMAT
  1
GRIDFORMAT_BEGIN
 90
        0
 91
        1
 62
     0
 92
       -2
340
0
 93
        0
 40
0.045
309
GRIDFORMAT_END
 95
        2
302
GRIDFORMAT
  1
GRIDFORMAT_BEGIN
 90
        0
 91
        1
 62
     0
 92
       -2
340
0
 93
        0
 40
0.045
309
GRIDFORMAT_END
 95
        4
302
GRIDFORMAT
  1
GRIDFORMAT_BEGIN
 90
        0
 91
        1
 62
     0
 92
       -2
340
0
 93
        0
 40
0.045
309
GRIDFORMAT_END
 95
        8
302
GRIDFORMAT
  1
GRIDFORMAT_BEGIN
 90
        0
 91
        1
 62
     0
 92
       -2
340
0
 93
        0
 40
0.045
309
GRIDFORMAT_END
 95
       16
302
GRIDFORMAT
  1
GRIDFORMAT_BEGIN
 90
        0
 91
        1
 62
     0
 92
       -2
340
0
 93
        0
 40
0.045
309
GRIDFORMAT_END
 95
       32
302
GRIDFORMAT
  1
GRIDFORMAT_BEGIN
 90
        0
 91
        1
 62
     0
 92
       -2
340
0
 93
        0
 40
0.045
309
GRIDFORMAT_END
309
TABLEFORMAT_END
  1
CELLSTYLE_BEGIN
 90
        2
 91
        1
300
_HEADER
309
CELLSTYLE_END
300
CELLSTYLE
  1
TABLEFORMAT_BEGIN
 90
        5
170
     1
 91
        0
 92
        0
 62
   257
 93
        1
300
CONTENTFORMAT
  1
CONTENTFORMAT_BEGIN
 90
        0
 91
        0
 92
      512
 93
        0
300

 40
0.0
140
1.0
 94
        2
 62
     0
340
4317
144
0.18
309
CONTENTFORMAT_END
171
     1
301
MARGIN
  1
CELLMARGIN_BEGIN
 40
0.06
 40
0.06
 40
0.06
 40
0.06
 40
0.18
 40
0.18
309
CELLMARGIN_END
 94
        6
 95
        1
302
GRIDFORMAT
  1
GRIDFORMAT_BEGIN
 90
        0
 91
        1
 62
     0
 92
       -2
340
0
 93
        0
 40
0.045
309
GRIDFORMAT_END
 95
        2
302
GRIDFORMAT
  1
GRIDFORMAT_BEGIN
 90
        0
 91
        1
 62
     0
 92
       -2
340
0
 93
        0
 40
0.045
309
GRIDFORMAT_END
 95
        4
302
GRIDFORMAT
  1
GRIDFORMAT_BEGIN
 90
        0
 91
        1
 62
     0
 92
       -2
340
0
 93
        0
 40
0.045
309
GRIDFORMAT_END
 95
        8
302
GRIDFORMAT
  1
GRIDFORMAT_BEGIN
 90
        0
 91
        1
 62
     0
 92
       -2
340
0
 93
        0
 40
0.045
309
GRIDFORMAT_END
 95
       16
302
GRIDFORMAT
  1
GRIDFORMAT_BEGIN
 90
        0
 91
        1
 62
     0
 92
       -2
340
0
 93
        0
 40
0.045
309
GRIDFORMAT_END
 95
       32
302
GRIDFORMAT
  1
GRIDFORMAT_BEGIN
 90
        0
 91
        1
 62
     0
 92
       -2
340
0
 93
        0
 40
0.045
309
GRIDFORMAT_END
309
TABLEFORMAT_END
  1
CELLSTYLE_BEGIN
 90
        3
 91
        2
300
_DATA
309
CELLSTYLE_END
  0
XRECORD
  5
4D8C
102
{ACAD_REACTORS
330
49FA
102
}
330
49FA
100
AcDbXrecord
280
     1
102
ACAD_ROUNDTRIP_PRE2007_TABLESTYLE
 90
      512
 91
        0
  1

 92
      512
 93
        0
  2

 94
      512
 95
        0
  3

  0
XRECORD
  5
4D71
102
{ACAD_REACTORS
330
4D70
102
}
330
4D70
100
AcDbXrecord
280
     1
102
RTVSPropertyOp0
 70
     1
102
RTVSPropertyOp1
 70
     1
102
RTVSPropertyOp2
 70
     1
102
RTVSPropertyOp3
 70
     1
102
RTVSPropertyOp4
 70
     1
102
RTVSPropertyOp5
 70
     1
102
RTVSPropertyOp6
 70
     1
102
RTVSPropertyOp7
 70
     1
102
RTVSPropertyOp8
 70
     1
102
RTVSPropertyOp9
 70
     1
102
RTVSPropertyOp10
 70
     1
102
RTVSPropertyOp11
 70
     1
102
RTVSPropertyOp12
 70
     1
102
RTVSPropertyOp13
 70
     1
102
RTVSPropertyOp14
 70
     1
102
RTVSPropertyOp15
 70
     1
102
RTVSPropertyOp16
 70
     1
102
RTVSPropertyOp17
 70
     1
102
RTVSPropertyOp18
 70
     1
102
RTVSPropertyOp19
 70
     1
102
RTVSPropertyOp20
 70
     1
102
RTVSPropertyOp21
 70
     1
102
RTVSPropertyOp22
 70
     1
102
RTVSPropertyOp23
 70
     1
102
RTVSPropertyOp24
 70
     1
102
RTVSPropertyOp25
 70
     1
102
RTVSPropertyOp26
 70
     1
102
RTVSPropertyOp27
 70
     1
  0
XRECORD
  5
4D75
102
{ACAD_REACTORS
330
4D74
102
}
330
4D74
100
AcDbXrecord
280
     1
102
RTVSPropertyOp0
 70
     1
102
RTVSPropertyOp1
 70
     1
102
RTVSPropertyOp2
 70
     1
102
RTVSPropertyOp3
 70
     1
102
RTVSPropertyOp4
 70
     1
102
RTVSPropertyOp5
 70
     1
102
RTVSPropertyOp6
 70
     1
102
RTVSPropertyOp7
 70
     1
102
RTVSPropertyOp8
 70
     1
102
RTVSPropertyOp9
 70
     1
102
RTVSPropertyOp10
 70
     1
102
RTVSPropertyOp11
 70
     1
102
RTVSPropertyOp12
 70
     1
102
RTVSPropertyOp13
 70
     1
102
RTVSPropertyOp14
 70
     1
102
RTVSPropertyOp15
 70
     1
102
RTVSPropertyOp16
 70
     1
102
RTVSPropertyOp17
 70
     1
102
RTVSPropertyOp18
 70
     1
102
RTVSPropertyOp19
 70
     1
102
RTVSPropertyOp20
 70
     1
102
RTVSPropertyOp21
 70
     1
102
RTVSPropertyOp22
 70
     1
102
RTVSPropertyOp23
 70
     1
102
RTVSPropertyOp24
 70
     1
102
RTVSPropertyOp25
 70
     1
102
RTVSPropertyOp26
 70
     1
102
RTVSPropertyOp27
 70
     1
  0
XRECORD
  5
4D73
102
{ACAD_REACTORS
330
4D72
102
}
330
4D72
100
AcDbXrecord
280
     1
102
RTVSPropertyOp0
 70
     1
102
RTVSPropertyOp1
 70
     1
102
RTVSPropertyOp2
 70
     1
102
RTVSPropertyOp3
 70
     1
102
RTVSPropertyOp4
 70
     1
102
RTVSPropertyOp5
 70
     1
102
RTVSPropertyOp6
 70
     1
102
RTVSPropertyOp7
 70
     1
102
RTVSPropertyOp8
 70
     1
102
RTVSPropertyOp9
 70
     1
102
RTVSPropertyOp10
 70
     1
102
RTVSPropertyOp11
 70
     1
102
RTVSPropertyOp12
 70
     1
102
RTVSPropertyOp13
 70
     1
102
RTVSPropertyOp14
 70
     1
102
RTVSPropertyOp15
 70
     1
102
RTVSPropertyOp16
 70
     1
102
RTVSPropertyOp17
 70
     1
102
RTVSPropertyOp18
 70
     1
102
RTVSPropertyOp19
 70
     1
102
RTVSPropertyOp20
 70
     1
102
RTVSPropertyOp21
 70
     1
102
RTVSPropertyOp22
 70
     1
102
RTVSPropertyOp23
 70
     1
102
RTVSPropertyOp24
 70
     1
102
RTVSPropertyOp25
 70
     1
102
RTVSPropertyOp26
 70
     1
102
RTVSPropertyOp27
 70
     1
  0
XRECORD
  5
4D6F
102
{ACAD_REACTORS
330
4D6E
102
}
330
4D6E
100
AcDbXrecord
280
     1
102
RTVSPropertyOp0
 70
     1
102
RTVSPropertyOp1
 70
     1
102
RTVSPropertyOp2
 70
     1
102
RTVSPropertyOp3
 70
     1
102
RTVSPropertyOp4
 70
     1
102
RTVSPropertyOp5
 70
     1
102
RTVSPropertyOp6
 70
     1
102
RTVSPropertyOp7
 70
     1
102
RTVSPropertyOp8
 70
     1
102
RTVSPropertyOp9
 70
     1
102
RTVSPropertyOp10
 70
     1
102
RTVSPropertyOp11
 70
     1
102
RTVSPropertyOp12
 70
     1
102
RTVSPropertyOp13
 70
     1
102
RTVSPropertyOp14
 70
     1
102
RTVSPropertyOp15
 70
     1
102
RTVSPropertyOp16
 70
     1
102
RTVSPropertyOp17
 70
     1
102
RTVSPropertyOp18
 70
     1
102
RTVSPropertyOp19
 70
     1
102
RTVSPropertyOp20
 70
     1
102
RTVSPropertyOp21
 70
     1
102
RTVSPropertyOp22
 70
     1
102
RTVSPropertyOp23
 70
     1
102
RTVSPropertyOp24
 70
     1
102
RTVSPropertyOp25
 70
     1
102
RTVSPropertyOp26
 70
     1
102
RTVSPropertyOp27
 70
     1
  0
XRECORD
  5
4D7D
102
{ACAD_REACTORS
330
4D7C
102
}
330
4D7C
100
AcDbXrecord
280
     1
102
RTVSPropertyOp0
 70
     1
102
RTVSPropertyOp1
 70
     1
102
RTVSPropertyOp2
 70
     1
102
RTVSPropertyOp3
 70
     1
102
RTVSPropertyOp4
 70
     1
102
RTVSPropertyOp5
 70
     1
102
RTVSPropertyOp6
 70
     1
102
RTVSPropertyOp7
 70
     1
102
RTVSPropertyOp8
 70
     1
102
RTVSPropertyOp9
 70
     1
102
RTVSPropertyOp10
 70
     1
102
RTVSPropertyOp11
 70
     1
102
RTVSPropertyOp12
 70
     1
102
RTVSPropertyOp13
 70
     1
102
RTVSPropertyOp14
 70
     1
102
RTVSPropertyOp15
 70
     1
102
RTVSPropertyOp16
 70
     1
102
RTVSPropertyOp17
 70
     1
102
RTVSPropertyOp18
 70
     1
102
RTVSPropertyOp19
 70
     1
102
RTVSPropertyOp20
 70
     1
102
RTVSPropertyOp21
 70
     1
102
RTVSPropertyOp22
 70
     1
102
RTVSPropertyOp23
 70
     1
102
RTVSPropertyOp24
 70
     1
102
RTVSPropertyOp25
 70
     1
102
RTVSPropertyOp26
 70
     1
102
RTVSPropertyOp27
 70
     1
  0
XRECORD
  5
4D85
102
{ACAD_REACTORS
330
4D84
102
}
330
4D84
100
AcDbXrecord
280
     1
102
RTVSPropertyOp0
 70
     1
102
RTVSPropertyOp1
 70
     1
102
RTVSPropertyOp2
 70
     1
102
RTVSPropertyOp3
 70
     1
102
RTVSPropertyOp4
 70
     1
102
RTVSPropertyOp5
 70
     1
102
RTVSPropertyOp6
 70
     1
102
RTVSPropertyOp7
 70
     1
102
RTVSPropertyOp8
 70
     1
102
RTVSPropertyOp9
 70
     1
102
RTVSPropertyOp10
 70
     1
102
RTVSPropertyOp11
 70
     1
102
RTVSPropertyOp12
 70
     1
102
RTVSPropertyOp13
 70
     1
102
RTVSPropertyOp14
 70
     1
102
RTVSPropertyOp15
 70
     1
102
RTVSPropertyOp16
 70
     1
102
RTVSPropertyOp17
 70
     1
102
RTVSPropertyOp18
 70
     1
102
RTVSPropertyOp19
 70
     1
102
RTVSPropertyOp20
 70
     1
102
RTVSPropertyOp21
 70
     1
102
RTVSPropertyOp22
 70
     1
102
RTVSPropertyOp23
 70
     1
102
RTVSPropertyOp24
 70
     1
102
RTVSPropertyOp25
 70
     1
102
RTVSPropertyOp26
 70
     1
102
RTVSPropertyOp27
 70
     1
  0
XRECORD
  5
4D77
102
{ACAD_REACTORS
330
4D76
102
}
330
4D76
100
AcDbXrecord
280
     1
102
RTVSPropertyOp0
 70
     1
102
RTVSPropertyOp1
 70
     1
102
RTVSPropertyOp2
 70
     1
102
RTVSPropertyOp3
 70
     1
102
RTVSPropertyOp4
 70
     1
102
RTVSPropertyOp5
 70
     1
102
RTVSPropertyOp6
 70
     1
102
RTVSPropertyOp7
 70
     1
102
RTVSPropertyOp8
 70
     1
102
RTVSPropertyOp9
 70
     1
102
RTVSPropertyOp10
 70
     1
102
RTVSPropertyOp11
 70
     1
102
RTVSPropertyOp12
 70
     1
102
RTVSPropertyOp13
 70
     1
102
RTVSPropertyOp14
 70
     1
102
RTVSPropertyOp15
 70
     1
102
RTVSPropertyOp16
 70
     1
102
RTVSPropertyOp17
 70
     1
102
RTVSPropertyOp18
 70
     1
102
RTVSPropertyOp19
 70
     1
102
RTVSPropertyOp20
 70
     1
102
RTVSPropertyOp21
 70
     1
102
RTVSPropertyOp22
 70
     1
102
RTVSPropertyOp23
 70
     1
102
RTVSPropertyOp24
 70
     1
102
RTVSPropertyOp25
 70
     1
102
RTVSPropertyOp26
 70
     1
102
RTVSPropertyOp27
 70
     1
  0
XRECORD
  5
4D7B
102
{ACAD_REACTORS
330
4D7A
102
}
330
4D7A
100
AcDbXrecord
280
     1
102
RTVSPropertyOp0
 70
     1
102
RTVSPropertyOp1
 70
     1
102
RTVSPropertyOp2
 70
     1
102
RTVSPropertyOp3
 70
     1
102
RTVSPropertyOp4
 70
     1
102
RTVSPropertyOp5
 70
     1
102
RTVSPropertyOp6
 70
     1
102
RTVSPropertyOp7
 70
     1
102
RTVSPropertyOp8
 70
     1
102
RTVSPropertyOp9
 70
     1
102
RTVSPropertyOp10
 70
     1
102
RTVSPropertyOp11
 70
     1
102
RTVSPropertyOp12
 70
     1
102
RTVSPropertyOp13
 70
     1
102
RTVSPropertyOp14
 70
     1
102
RTVSPropertyOp15
 70
     1
102
RTVSPropertyOp16
 70
     1
102
RTVSPropertyOp17
 70
     1
102
RTVSPropertyOp18
 70
     1
102
RTVSPropertyOp19
 70
     1
102
RTVSPropertyOp20
 70
     1
102
RTVSPropertyOp21
 70
     1
102
RTVSPropertyOp22
 70
     1
102
RTVSPropertyOp23
 70
     1
102
RTVSPropertyOp24
 70
     1
102
RTVSPropertyOp25
 70
     1
102
RTVSPropertyOp26
 70
     1
102
RTVSPropertyOp27
 70
     1
  0
XRECORD
  5
4D8B
102
{ACAD_REACTORS
330
4D8A
102
}
330
4D8A
100
AcDbXrecord
280
     1
102
RTVSPropertyOp0
 70
     0
102
RTVSPropertyOp1
 70
     0
102
RTVSPropertyOp2
 70
     0
102
RTVSPropertyOp3
 70
     0
102
RTVSPropertyOp4
 70
     0
102
RTVSPropertyOp5
 70
     0
102
RTVSPropertyOp6
 70
     0
102
RTVSPropertyOp7
 70
     0
102
RTVSPropertyOp8
 70
     0
102
RTVSPropertyOp9
 70
     0
102
RTVSPropertyOp10
 70
     0
102
RTVSPropertyOp11
 70
     0
102
RTVSPropertyOp12
 70
     0
102
RTVSPropertyOp13
 70
     0
102
RTVSPropertyOp14
 70
     2
102
RTVSPropertyOp15
 70
     0
102
RTVSPropertyOp16
 70
     0
102
RTVSPropertyOp17
 70
     0
102
RTVSPropertyOp18
 70
     0
102
RTVSPropertyOp19
 70
     0
102
RTVSPropertyOp20
 70
     0
102
RTVSPropertyOp21
 70
     0
102
RTVSPropertyOp22
 70
     0
102
RTVSPropertyOp23
 70
     0
102
RTVSPropertyOp24
 70
     0
102
RTVSPropertyOp25
 70
     0
102
RTVSPropertyOp26
 70
     0
102
RTVSPropertyOp27
 70
     0
  0
XRECORD
  5
4D83
102
{ACAD_REACTORS
330
4D82
102
}
330
4D82
100
AcDbXrecord
280
     1
102
RTVSPropertyOp0
 70
     1
102
RTVSPropertyOp1
 70
     1
102
RTVSPropertyOp2
 70
     1
102
RTVSPropertyOp3
 70
     1
102
RTVSPropertyOp4
 70
     1
102
RTVSPropertyOp5
 70
     1
102
RTVSPropertyOp6
 70
     1
102
RTVSPropertyOp7
 70
     1
102
RTVSPropertyOp8
 70
     1
102
RTVSPropertyOp9
 70
     1
102
RTVSPropertyOp10
 70
     1
102
RTVSPropertyOp11
 70
     1
102
RTVSPropertyOp12
 70
     1
102
RTVSPropertyOp13
 70
     1
102
RTVSPropertyOp14
 70
     1
102
RTVSPropertyOp15
 70
     1
102
RTVSPropertyOp16
 70
     1
102
RTVSPropertyOp17
 70
     1
102
RTVSPropertyOp18
 70
     1
102
RTVSPropertyOp19
 70
     1
102
RTVSPropertyOp20
 70
     1
102
RTVSPropertyOp21
 70
     1
102
RTVSPropertyOp22
 70
     1
102
RTVSPropertyOp23
 70
     1
102
RTVSPropertyOp24
 70
     1
102
RTVSPropertyOp25
 70
     1
102
RTVSPropertyOp26
 70
     1
102
RTVSPropertyOp27
 70
     1
  0
XRECORD
  5
4D67
102
{ACAD_REACTORS
330
4D66
102
}
330
4D66
100
AcDbXrecord
280
     1
102
RTVSPropertyOp0
 70
     1
102
RTVSPropertyOp1
 70
     1
102
RTVSPropertyOp2
 70
     1
102
RTVSPropertyOp3
 70
     1
102
RTVSPropertyOp4
 70
     1
102
RTVSPropertyOp5
 70
     1
102
RTVSPropertyOp6
 70
     1
102
RTVSPropertyOp7
 70
     1
102
RTVSPropertyOp8
 70
     1
102
RTVSPropertyOp9
 70
     1
102
RTVSPropertyOp10
 70
     1
102
RTVSPropertyOp11
 70
     1
102
RTVSPropertyOp12
 70
     1
102
RTVSPropertyOp13
 70
     1
102
RTVSPropertyOp14
 70
     1
102
RTVSPropertyOp15
 70
     1
102
RTVSPropertyOp16
 70
     1
102
RTVSPropertyOp17
 70
     1
102
RTVSPropertyOp18
 70
     1
102
RTVSPropertyOp19
 70
     1
102
RTVSPropertyOp20
 70
     1
102
RTVSPropertyOp21
 70
     1
102
RTVSPropertyOp22
 70
     1
102
RTVSPropertyOp23
 70
     1
102
RTVSPropertyOp24
 70
     1
102
RTVSPropertyOp25
 70
     1
102
RTVSPropertyOp26
 70
     1
102
RTVSPropertyOp27
 70
     1
  0
XRECORD
  5
4D69
102
{ACAD_REACTORS
330
4D68
102
}
330
4D68
100
AcDbXrecord
280
     1
102
RTVSPropertyOp0
 70
     1
102
RTVSPropertyOp1
 70
     1
102
RTVSPropertyOp2
 70
     1
102
RTVSPropertyOp3
 70
     1
102
RTVSPropertyOp4
 70
     1
102
RTVSPropertyOp5
 70
     1
102
RTVSPropertyOp6
 70
     1
102
RTVSPropertyOp7
 70
     1
102
RTVSPropertyOp8
 70
     1
102
RTVSPropertyOp9
 70
     1
102
RTVSPropertyOp10
 70
     1
102
RTVSPropertyOp11
 70
     1
102
RTVSPropertyOp12
 70
     1
102
RTVSPropertyOp13
 70
     1
102
RTVSPropertyOp14
 70
     1
102
RTVSPropertyOp15
 70
     1
102
RTVSPropertyOp16
 70
     1
102
RTVSPropertyOp17
 70
     1
102
RTVSPropertyOp18
 70
     1
102
RTVSPropertyOp19
 70
     1
102
RTVSPropertyOp20
 70
     1
102
RTVSPropertyOp21
 70
     1
102
RTVSPropertyOp22
 70
     1
102
RTVSPropertyOp23
 70
     1
102
RTVSPropertyOp24
 70
     1
102
RTVSPropertyOp25
 70
     1
102
RTVSPropertyOp26
 70
     1
102
RTVSPropertyOp27
 70
     1
  0
XRECORD
  5
4D6B
102
{ACAD_REACTORS
330
4D6A
102
}
330
4D6A
100
AcDbXrecord
280
     1
102
RTVSPropertyOp0
 70
     1
102
RTVSPropertyOp1
 70
     1
102
RTVSPropertyOp2
 70
     1
102
RTVSPropertyOp3
 70
     1
102
RTVSPropertyOp4
 70
     1
102
RTVSPropertyOp5
 70
     1
102
RTVSPropertyOp6
 70
     1
102
RTVSPropertyOp7
 70
     1
102
RTVSPropertyOp8
 70
     1
102
RTVSPropertyOp9
 70
     1
102
RTVSPropertyOp10
 70
     1
102
RTVSPropertyOp11
 70
     1
102
RTVSPropertyOp12
 70
     1
102
RTVSPropertyOp13
 70
     1
102
RTVSPropertyOp14
 70
     1
102
RTVSPropertyOp15
 70
     1
102
RTVSPropertyOp16
 70
     1
102
RTVSPropertyOp17
 70
     1
102
RTVSPropertyOp18
 70
     1
102
RTVSPropertyOp19
 70
     1
102
RTVSPropertyOp20
 70
     1
102
RTVSPropertyOp21
 70
     1
102
RTVSPropertyOp22
 70
     1
102
RTVSPropertyOp23
 70
     1
102
RTVSPropertyOp24
 70
     1
102
RTVSPropertyOp25
 70
     1
102
RTVSPropertyOp26
 70
     1
102
RTVSPropertyOp27
 70
     1
  0
XRECORD
  5
4D6D
102
{ACAD_REACTORS
330
4D6C
102
}
330
4D6C
100
AcDbXrecord
280
     1
102
RTVSPropertyOp0
 70
     1
102
RTVSPropertyOp1
 70
     1
102
RTVSPropertyOp2
 70
     1
102
RTVSPropertyOp3
 70
     1
102
RTVSPropertyOp4
 70
     1
102
RTVSPropertyOp5
 70
     1
102
RTVSPropertyOp6
 70
     1
102
RTVSPropertyOp7
 70
     1
102
RTVSPropertyOp8
 70
     1
102
RTVSPropertyOp9
 70
     1
102
RTVSPropertyOp10
 70
     1
102
RTVSPropertyOp11
 70
     1
102
RTVSPropertyOp12
 70
     1
102
RTVSPropertyOp13
 70
     1
102
RTVSPropertyOp14
 70
     1
102
RTVSPropertyOp15
 70
     1
102
RTVSPropertyOp16
 70
     1
102
RTVSPropertyOp17
 70
     1
102
RTVSPropertyOp18
 70
     1
102
RTVSPropertyOp19
 70
     1
102
RTVSPropertyOp20
 70
     1
102
RTVSPropertyOp21
 70
     1
102
RTVSPropertyOp22
 70
     1
102
RTVSPropertyOp23
 70
     1
102
RTVSPropertyOp24
 70
     1
102
RTVSPropertyOp25
 70
     1
102
RTVSPropertyOp26
 70
     1
102
RTVSPropertyOp27
 70
     1
  0
XRECORD
  5
4D87
102
{ACAD_REACTORS
330
4D86
102
}
330
4D86
100
AcDbXrecord
280
     1
102
RTVSPropertyOp0
 70
     0
102
RTVSPropertyOp1
 70
     0
102
RTVSPropertyOp2
 70
     0
102
RTVSPropertyOp3
 70
     0
102
RTVSPropertyOp4
 70
     0
102
RTVSPropertyOp5
 70
     0
102
RTVSPropertyOp6
 70
     0
102
RTVSPropertyOp7
 70
     0
102
RTVSPropertyOp8
 70
     0
102
RTVSPropertyOp9
 70
     0
102
RTVSPropertyOp10
 70
     0
102
RTVSPropertyOp11
 70
     0
102
RTVSPropertyOp12
 70
     0
102
RTVSPropertyOp13
 70
     0
102
RTVSPropertyOp14
 70
     2
102
RTVSPropertyOp15
 70
     0
102
RTVSPropertyOp16
 70
     0
102
RTVSPropertyOp17
 70
     0
102
RTVSPropertyOp18
 70
     0
102
RTVSPropertyOp19
 70
     0
102
RTVSPropertyOp20
 70
     0
102
RTVSPropertyOp21
 70
     0
102
RTVSPropertyOp22
 70
     0
102
RTVSPropertyOp23
 70
     0
102
RTVSPropertyOp24
 70
     0
102
RTVSPropertyOp25
 70
     0
102
RTVSPropertyOp26
 70
     0
102
RTVSPropertyOp27
 70
     0
  0
XRECORD
  5
4D81
102
{ACAD_REACTORS
330
4D80
102
}
330
4D80
100
AcDbXrecord
280
     1
102
RTVSPropertyOp0
 70
     1
102
RTVSPropertyOp1
 70
     1
102
RTVSPropertyOp2
 70
     1
102
RTVSPropertyOp3
 70
     1
102
RTVSPropertyOp4
 70
     1
102
RTVSPropertyOp5
 70
     1
102
RTVSPropertyOp6
 70
     1
102
RTVSPropertyOp7
 70
     1
102
RTVSPropertyOp8
 70
     1
102
RTVSPropertyOp9
 70
     1
102
RTVSPropertyOp10
 70
     1
102
RTVSPropertyOp11
 70
     1
102
RTVSPropertyOp12
 70
     1
102
RTVSPropertyOp13
 70
     1
102
RTVSPropertyOp14
 70
     1
102
RTVSPropertyOp15
 70
     1
102
RTVSPropertyOp16
 70
     1
102
RTVSPropertyOp17
 70
     1
102
RTVSPropertyOp18
 70
     1
102
RTVSPropertyOp19
 70
     1
102
RTVSPropertyOp20
 70
     1
102
RTVSPropertyOp21
 70
     1
102
RTVSPropertyOp22
 70
     1
102
RTVSPropertyOp23
 70
     1
102
RTVSPropertyOp24
 70
     1
102
RTVSPropertyOp25
 70
     1
102
RTVSPropertyOp26
 70
     1
102
RTVSPropertyOp27
 70
     1
  0
XRECORD
  5
4D89
102
{ACAD_REACTORS
330
4D88
102
}
330
4D88
100
AcDbXrecord
280
     1
102
RTVSPropertyOp0
 70
     0
102
RTVSPropertyOp1
 70
     0
102
RTVSPropertyOp2
 70
     0
102
RTVSPropertyOp3
 70
     0
102
RTVSPropertyOp4
 70
     0
102
RTVSPropertyOp5
 70
     0
102
RTVSPropertyOp6
 70
     0
102
RTVSPropertyOp7
 70
     0
102
RTVSPropertyOp8
 70
     0
102
RTVSPropertyOp9
 70
     0
102
RTVSPropertyOp10
 70
     0
102
RTVSPropertyOp11
 70
     0
102
RTVSPropertyOp12
 70
     0
102
RTVSPropertyOp13
 70
     0
102
RTVSPropertyOp14
 70
     2
102
RTVSPropertyOp15
 70
     0
102
RTVSPropertyOp16
 70
     0
102
RTVSPropertyOp17
 70
     0
102
RTVSPropertyOp18
 70
     0
102
RTVSPropertyOp19
 70
     0
102
RTVSPropertyOp20
 70
     0
102
RTVSPropertyOp21
 70
     0
102
RTVSPropertyOp22
 70
     0
102
RTVSPropertyOp23
 70
     0
102
RTVSPropertyOp24
 70
     0
102
RTVSPropertyOp25
 70
     0
102
RTVSPropertyOp26
 70
     0
102
RTVSPropertyOp27
 70
     0
  0
XRECORD
  5
4D79
102
{ACAD_REACTORS
330
4D78
102
}
330
4D78
100
AcDbXrecord
280
     1
102
RTVSPropertyOp0
 70
     1
102
RTVSPropertyOp1
 70
     1
102
RTVSPropertyOp2
 70
     1
102
RTVSPropertyOp3
 70
     1
102
RTVSPropertyOp4
 70
     1
102
RTVSPropertyOp5
 70
     1
102
RTVSPropertyOp6
 70
     1
102
RTVSPropertyOp7
 70
     1
102
RTVSPropertyOp8
 70
     1
102
RTVSPropertyOp9
 70
     1
102
RTVSPropertyOp10
 70
     1
102
RTVSPropertyOp11
 70
     1
102
RTVSPropertyOp12
 70
     1
102
RTVSPropertyOp13
 70
     1
102
RTVSPropertyOp14
 70
     1
102
RTVSPropertyOp15
 70
     1
102
RTVSPropertyOp16
 70
     1
102
RTVSPropertyOp17
 70
     1
102
RTVSPropertyOp18
 70
     1
102
RTVSPropertyOp19
 70
     1
102
RTVSPropertyOp20
 70
     1
102
RTVSPropertyOp21
 70
     1
102
RTVSPropertyOp22
 70
     1
102
RTVSPropertyOp23
 70
     1
102
RTVSPropertyOp24
 70
     1
102
RTVSPropertyOp25
 70
     1
102
RTVSPropertyOp26
 70
     1
102
RTVSPropertyOp27
 70
     1
  0
XRECORD
  5
4D7F
102
{ACAD_REACTORS
330
4D7E
102
}
330
4D7E
100
AcDbXrecord
280
     1
102
RTVSPropertyOp0
 70
     1
102
RTVSPropertyOp1
 70
     1
102
RTVSPropertyOp2
 70
     1
102
RTVSPropertyOp3
 70
     1
102
RTVSPropertyOp4
 70
     1
102
RTVSPropertyOp5
 70
     1
102
RTVSPropertyOp6
 70
     1
102
RTVSPropertyOp7
 70
     1
102
RTVSPropertyOp8
 70
     1
102
RTVSPropertyOp9
 70
     1
102
RTVSPropertyOp10
 70
     1
102
RTVSPropertyOp11
 70
     1
102
RTVSPropertyOp12
 70
     1
102
RTVSPropertyOp13
 70
     1
102
RTVSPropertyOp14
 70
     1
102
RTVSPropertyOp15
 70
     1
102
RTVSPropertyOp16
 70
     1
102
RTVSPropertyOp17
 70
     1
102
RTVSPropertyOp18
 70
     1
102
RTVSPropertyOp19
 70
     1
102
RTVSPropertyOp20
 70
     1
102
RTVSPropertyOp21
 70
     1
102
RTVSPropertyOp22
 70
     1
102
RTVSPropertyOp23
 70
     1
102
RTVSPropertyOp24
 70
     1
102
RTVSPropertyOp25
 70
     1
102
RTVSPropertyOp26
 70
     1
102
RTVSPropertyOp27
 70
     1
  0
ENDSEC
  0
EOF
